samsung

For help and support with PS3 Media Server in general
Forum rules
Please make sure you follow the Problem Reporting Guidelines before posting if you want a reply.

samsung

Postby jorgen68 » Sun Apr 08, 2012 5:31 pm

hello i have a smasung galaxy s2 and i am having trouble playing the videos i shot with my phone.I loaded the videos to my pc and it's no problem playing them with the VLC byt when i want to tream them to the Ps3 it doesn't work.
jorgen68
 
Posts: 5
Joined: Sun Apr 08, 2012 5:06 pm

Re: samsung

Postby Val Killmore » Sun Apr 08, 2012 5:35 pm

Could you post more info, especially MediaInfo, debug info and what engine you are using.
Val Killmore: Potato Chip Assassin
SubJunk53--Java 7u4--Acer Aspire 6930 2CoreDuo @ 2.00 GHz 3.00 GB RAM serving to : PS3 Slim -- 2 Xbox360
User avatar
Val Killmore
 
Posts: 712
Joined: Sun May 01, 2011 8:48 am

Re: samsung

Postby jorgen68 » Sun Apr 08, 2012 6:19 pm

Code: Select all
General
Complete name                            : C:\Documents and SettingsMina dokument\samsung\Kies\Video\20120406_112548.mp4
Format                                   : MPEG-4
Format profile                           : 3GPP Media Release 4
Codec ID                                 : 3gp4
File size                                : 150 MiB
Duration                                 : 1mn 28s
Overall bit rate mode                    : Variable
Overall bit rate                         : 14.2 Mbps

Video
ID                                       : 2
Format                                   : AVC
Format/Info                              : Advanced Video Codec
Format profile                           : High@L4.0
Format settings, CABAC                   : Yes
Format settings, ReFrames                : 1 frame
Format settings, GOP                     : M=1, N=30
Muxing mode                              : Container profile=Unknown@22.4
Codec ID                                 : avc1
Codec ID/Info                            : Advanced Video Coding
Duration                                 : 1mn 28s
Source duration                          : 1mn 28s
Bit rate mode                            : Variable
Bit rate                                 : 14.1 Mbps
Width                                    : 1 920 pixels
Height                                   : 1 080 pixels
Display aspect ratio                     : 16:9
Frame rate mode                          : Variable
Frame rate                               : 24.916 fps
Minimum frame rate                       : 19.608 fps
Maximum frame rate                       : 34.483 fps
Color space                              : YUV
Chroma subsampling                       : 4:2:0
Bit depth                                : 8 bits
Scan type                                : Progressive
Bits/(Pixel*Frame)                       : 0.273
Stream size                              : 149 MiB (99%)
Source stream size                       : 149 MiB (100%)
Language                                 : English
mdhd_Duration                            : 88578

Audio
ID                                       : 1
Format                                   : AAC
Format/Info                              : Advanced Audio Codec
Format profile                           : LC
Codec ID                                 : 40
Duration                                 : 1mn 28s
Source duration                          : 1mn 28s
Bit rate mode                            : Variable
Bit rate                                 : 61.1 Kbps
Maximum bit rate                         : 67.0 Kbps
Channel(s)                               : 1 channel
Channel positions                        : Front: C
Sampling rate                            : 44.1 KHz
Compression mode                         : Lossy
Stream size                              : 657 KiB (0%)
Source stream size                       : 657 KiB (0%)
Language                                 : English
mdhd_Duration                            : 88607
Last edited by chocolateboy on Sun Apr 08, 2012 6:20 pm, edited 1 time in total.
Reason: reformatted: http://tinyurl.com/4294qo2
jorgen68
 
Posts: 5
Joined: Sun Apr 08, 2012 5:06 pm

Re: samsung

Postby jorgen68 » Sun Apr 08, 2012 6:24 pm

xp professional to ps3 slim and ps3 mediaserver v 1.20.412
jorgen68
 
Posts: 5
Joined: Sun Apr 08, 2012 5:06 pm

Re: samsung

Postby chocolateboy » Sun Apr 08, 2012 6:26 pm

jorgen68 wrote:ps3 mediaserver v 1.20.412


FAQ: I have a problem with PMS. Do I need to upgrade anything? (bottom post)
chocolateboy
Project Member
 
Posts: 2580
Joined: Wed Sep 16, 2009 10:05 am


Return to General Help and Support

Who is online

Users browsing this forum: Yahoo [Bot] and 11 guests