Cannot stop the buzzing sound!

For help and support with issues specific to Linux/Unix
Forum rules
Please make sure you follow the Problem Reporting Guidelines before posting if you want a reply.

Cannot stop the buzzing sound!

Postby tkalfaoglu » Sun Sep 15, 2013 9:05 pm

Even though I disabled all DTS settings and tried the ps3 audio choices, I still have "data" sound instead of movie sound when playing avi files. (I toggled most settings in pms gui already; saved and restarted after each change, it made no difference)

Here is the mencoder command like it creates while its streaming perfect video and garbled audio.. Can anyone see what might be wrong here?
Thanks!

mencoder -ss 14.96 /home/turgut/Desktop/thead.avi -msglevel statusline=2 -oac lavc -of mpeg -mpegopts format=mpeg2:muxrate=500000:vbuf_size=1194:abuf_size=64 -ovc lavc -channels 2 -lavdopts debug=0:threads=1 -lavcopts autoaspect=1:vcodec=mpeg2video:acodec=ac3:abitrate=448:threads=1:keyint=25:vqscale=1:vqmin=2:vqmax=3:vrc_maxrate=499000:vrc_buf_size=1835 -ass -ass-color ffffff00 -ass-border-color 00000000 -ass-font-scale 1.4 -font Arial -ass-force-style FontName=Arial,Outline=1,Shadow=1,MarginV=10 -noflip-hebrew -fontconfig -subcp ISO-8859-9 -nosub -sub /home/turgut/Desktop/thead.srt -ofps 25 -sub /home/turgut/Desktop/thead.srt -mc 0 -noskip -af lavcresample=48000 -srate 48000 -o /tmp/ps3mediaserver/mencoder1379275277752

PS: This is fedora 19 with all updates.
tkalfaoglu
 
Posts: 3
Joined: Sun Sep 15, 2013 8:43 pm

Re: Cannot stop the buzzing sound!

Postby tkalfaoglu » Sun Sep 15, 2013 9:36 pm

UPDATE: I was able to fix it by installing tsMuxeR which was missing from my system, and then enabling the "Keep AC-3 Tracks" option.
tkalfaoglu
 
Posts: 3
Joined: Sun Sep 15, 2013 8:43 pm

Re: Cannot stop the buzzing sound!

Postby tkalfaoglu » Mon Sep 16, 2013 9:14 pm

Update: Today it's back with another mp4 file. It buzzes instead of movie sound.
Here is the file details (filename edited):

Input #0, mov,mp4,m4a,3gp,3g2,mj2, from 'The.H.mp4':
Metadata:
major_brand : isom
minor_version : 1
compatible_brands: isomavc1
creation_time : 2013-02-28 18:20:47
Duration: 02:49:37.17, start: 0.000000, bitrate: 2109 kb/s
Stream #0:0(und): Video: h264 (High) (avc1 / 0x31637661), yuv420p, 1920x800 [SAR 1:1 DAR 12:5], 2010 kb/s, 23.98 fps, 23.98 tbr, 24k tbn, 47.95 tbc
Metadata:
creation_time : 2013-02-28 18:20:47
handler_name : h.mkv.264#trackID=1:fps=23.976@GPAC0.5.1-DEV-rev4283
Stream #0:1(eng): Audio: aac (mp4a / 0x6134706D), 48000 Hz, stereo, fltp, 95 kb/s
Metadata:
creation_time : 2013-02-28 14:55:13
handler_name : Sound Media Handler

any ideas what to do? I'm going crazy with the buzzing sound!
tkalfaoglu
 
Posts: 3
Joined: Sun Sep 15, 2013 8:43 pm


Return to Linux/Unix Support

Who is online

Users browsing this forum: Google [Bot], Yahoo [Bot] and 3 guests