Latest Mac OS X beta build

Download and discuss official beta builds here

Re: Latest mac beta build

Postby benouz » Sun Apr 19, 2009 8:54 am

Hi Redlum,

Thanks for your work, I tried the r326 build and for me, it's ok, I didn't find any particular problem. I'm waiting for the day when mencoder_mt will be stable, because my mac isn't powerful enough to transcode 1080p with mencoder monothread :)
benouz
 
Posts: 1
Joined: Sun Apr 19, 2009 8:47 am

Re: Latest mac beta build

Postby j2048b » Mon Apr 20, 2009 3:16 am

for some reason i am getting no sound, but my 2 ps3's have been detected, but no sound to either one?

always had sound before....
j2048b
 
Posts: 176
Joined: Sun Jan 25, 2009 7:51 pm

Re: Latest mac beta build

Postby pmos69 » Tue Apr 21, 2009 6:01 pm

Running great here.

Just one snag:
The "switch to tsMuxer when H264 video is ps3 compatible" option does not seem to be working correctly.
I have some MKVs that play with black video when the option is enabled.
Had to disable the option.
pmos69
 
Posts: 147
Joined: Mon Jan 19, 2009 3:37 pm

Re: Latest mac beta build

Postby shagrath » Tue Apr 21, 2009 7:27 pm

pmos69 wrote:Running great here.

Just one snag:
The "switch to tsMuxer when H264 video is ps3 compatible" option does not seem to be working correctly.
I have some MKVs that play with black video when the option is enabled.
Had to disable the option.


I'm very interested about the mediainfo details of this video: http://mediainfo.sourceforge.net/en
shagrath
Project Lead
 
Posts: 2668
Joined: Wed Jan 14, 2009 1:39 pm

Re: Latest mac beta build

Postby j2048b » Tue Apr 21, 2009 9:36 pm

shagrath wrote:
pmos69 wrote:Running great here.

Just one snag:
The "switch to tsMuxer when H264 video is ps3 compatible" option does not seem to be working correctly.
I have some MKVs that play with black video when the option is enabled.
Had to disable the option.


I'm very interested about the mediainfo details of this video: http://mediainfo.sourceforge.net/en



what about the no sound issue?

i cannot get sound to play through anything?
j2048b
 
Posts: 176
Joined: Sun Jan 25, 2009 7:51 pm

Re: Latest mac beta build

Postby shagrath » Tue Apr 21, 2009 9:55 pm

if it was working before, then you have messed up a setting or something
shagrath
Project Lead
 
Posts: 2668
Joined: Wed Jan 14, 2009 1:39 pm

Re: Latest mac beta build

Postby pmos69 » Tue Apr 21, 2009 11:32 pm

Here you go,

General

Count : 256

Count of stream of this kind : 1

Kind of stream : General

Kind of stream : General

Stream identifier : 0

Inform : Matroska: 4.30 GiB, 56mn 8s

Count of video streams : 1

Count of audio streams : 1

Video_Format_List : AVC

Video_Format_WithHint_List : AVC

Codecs Video : AVC

Video_Language_List : English

Audio_Format_List : AC-3

Audio_Format_WithHint_List : AC-3

Audio codecs : AC3

Audio_Language_List : English

Complete name : /Volumes/IOMEGA_HDD/Filmes/film1.mkv

Folder name : /Volumes/IOMEGA_HDD/Filmes

File name : film1
File extension : mkv

Format : Matroska

Format : Matroska

Format/Url : http://packs.matroska.org/

Format/Extensions usually used : mkv mka mks

Codec : Matroska

Codec : Matroska

Codec/Url : http://packs.matroska.org/

Codec/Extensions usually used : mkv mka mks

File size : 4615931428

File size : 4.30 GiB

File size : 4 GiB

File size : 4.3 GiB

File size : 4.30 GiB

File size : 4.299 GiB

Duration : 3368256

Duration : 56mn 8s

Duration : 56mn 8s 256ms

Duration : 56mn 8s

Duration : 00:56:08.256

Overall bit rate : 10963374

Overall bit rate : 11.0 Mbps

Stream size : 96209034

Stream size : 91.8 MiB (2%)

Stream size : 92 MiB

Stream size : 92 MiB

Stream size : 91.8 MiB

Stream size : 91.75 MiB

Stream size : 91.8 MiB (2%)

Proportion of this stream : 0.02084

Encoded date : UTC 2008-10-08 08:32:00

Writing application : mkvmerge v2.2.0 ('Turn It On Again') built on Mar 10 2008 10:55:12

Writing library : libebml v0.7.7 + libmatroska v0.8.1

Writing library : libebml v0.7.7 + libmatroska v0.8.1



Video

Count : 144

Count of stream of this kind : 1

Kind of stream : Video

Kind of stream : Video

Stream identifier : 0

Inform : English, 10.3 Mbps (10.1 Mbps), 1920*1040 (16/9), at 23.976 fps, AVC (Container profile=Unknown@4.1) (High@L4.1) (CABAC / 5 Ref Frames)

ID : 1

ID : 1

UniqueID : 1

Format : AVC

Format/Info : Advanced Video Codec

Format/Url : http://developers.videolan.org/x264.html

Format profile : High@L4.1

Format settings : CABAC / 5 Ref Frames

Format settings, CABAC : Yes

Format settings, CABAC : Yes

Format settings, ReFrames : 5

Format settings, ReFrames : 5 frames

Muxing mode : Container profile=Unknown@4.1

Codec ID : V_MPEG4/ISO/AVC

Codec ID/Url : http://ffdshow-tryout.sourceforge.net/

Codec : V_MPEG4/ISO/AVC

Codec : AVC

Codec/Family : AVC

Codec/Info : Advanced Video Codec

Codec/Url : http://ffdshow-tryout.sourceforge.net/

Codec profile : High@L4.1

Codec settings : CABAC / 5 Ref Frames

Codec settings, CABAC : Yes

Codec_Settings_RefFrames : 5

Duration : 3364875

Duration : 56mn 4s

Duration : 56mn 4s 875ms

Duration : 56mn 4s

Duration : 00:56:04.875

Bit rate : 10297203

Bit rate : 10.3 Mbps

Nominal bit rate : 10073000

Nominal bit rate : 10.1 Mbps

Width : 1920

Width : 1 920 pixels

Height : 1040

Height : 1 040 pixels

Pixel aspect ratio : 1.000

Display aspect ratio : 1.846

Display aspect ratio : 16/9

Frame rate : 23.976

Frame rate : 23.976 fps

Frame count : 80757

Resolution : 24

Resolution : 24 bits

Colorimetry : 4:2:0

Scan type : Progressive

Scan type : Progressive

Interlacement : PPF

Interlacement : Progressive

Bits/(Pixel*Frame) : 0.215

Delay : 0

Stream size : 4331100058

Stream size : 4.03 GiB (94%)

Stream size : 4 GiB

Stream size : 4.0 GiB

Stream size : 4.03 GiB

Stream size : 4.034 GiB

Stream size : 4.03 GiB (94%)

Proportion of this stream : 0.93829

Title : http://www.SiLUHD.com

Writing library : x264 - core 65 r998M 6768543

Writing library : x264 core 65 r998M 6768543

Writing library/Name : x264

Writing library/Version : core 65 r998M 6768543

Encoding settings : cabac=1 / ref=5 / deblock=1:-2:-1 / analyse=0x3:0x113 / me=umh / subme=7 / psy_rd=1.0:0.0 / mixed_ref=1 / me_range=16 / chroma_me=1 / trellis=0 / 8x8dct=1 / cqm=2 / deadzone=6,4 / chroma_qp_offset=-2 / threads=6 / nr=0 / decimate=1 / mbaff=0 / bframes=3 / b_pyramid=1 / b_adapt=2 / b_bias=0 / direct=3 / wpredb=1 / keyint=250 / keyint_min=25 / scenecut=40(pre) / rc=2pass / bitrate=10073 / ratetol=1.0 / qcomp=0.60 / qpmin=10 / qpmax=51 / qpstep=4 / cplxblur=20.0 / qblur=0.5 / vbv_maxrate=50000 / vbv_bufsize=50000 / ip_ratio=1.40 / pb_ratio=1.30 / aq=1:1.00

Language : en

Language : English



Audio

Count : 121

Count of stream of this kind : 1

Kind of stream : Audio

Kind of stream : Audio

Stream identifier : 0

Inform : English, 448 Kbps, 48.0 KHz, 6 channels, AC-3

ID : 2

ID : 2

UniqueID : 3672039819

Format : AC-3

Format/Info : Audio Coding 3

Codec ID : A_AC3

Codec : AC3

Codec : AC3

Duration : 3368256

Duration : 56mn 8s

Duration : 56mn 8s 256ms

Duration : 56mn 8s

Duration : 00:56:08.256

Bit rate mode : CBR

Bit rate mode : Constant

Bit rate : 448000

Bit rate : 448 Kbps

Channel(s) : 6

Channel(s) : 6 channels

Channel positions : Front: L C R, Surround: L R, LFE

Channel positions : 3/2.1

Sampling rate : 48000

Sampling rate : 48.0 KHz

SamplingCount : 161676288

Delay : 0

Video delay : 0

Video0 delay : 0

Stream size : 188622336

Stream size : 180 MiB (4%)

Stream size : 180 MiB

Stream size : 180 MiB

Stream size : 180 MiB

Stream size : 179.9 MiB

Stream size : 180 MiB (4%)

Proportion of this stream : 0.04086

Title : 448 kbps

Language : en

Language : English
pmos69
 
Posts: 147
Joined: Mon Jan 19, 2009 3:37 pm

Re: Latest mac beta build

Postby shagrath » Wed Apr 22, 2009 1:21 am

thanks, it confirmed my thoughts
shagrath
Project Lead
 
Posts: 2668
Joined: Wed Jan 14, 2009 1:39 pm

Re: Latest mac beta build

Postby j2048b » Wed Apr 22, 2009 8:18 am

shagrath wrote:if it was working before, then you have messed up a setting or something



sorry i never changed a thing!!

and i do not get sound now from the newest beta version.

NEVER CHANGED A SETTING!!
j2048b
 
Posts: 176
Joined: Sun Jan 25, 2009 7:51 pm

Re: Latest mac beta build

Postby pmos69 » Wed Apr 22, 2009 8:54 am

When I installed the latest build I lost my previous configuration and had to configure again.
That didn't happened to you?
pmos69
 
Posts: 147
Joined: Mon Jan 19, 2009 3:37 pm

PreviousNext

Return to Beta Builds

Who is online

Users browsing this forum: Yahoo [Bot] and 2 guests