Blank screen with few mp4 files

For help and support with PS3 Media Server in general
Forum rules
Please make sure you follow the Problem Reporting Guidelines before posting if you want a reply.

Blank screen with few mp4 files

Postby lemmy » Sun Mar 24, 2013 6:27 am

I have never had a problem playing hundreds of mp4 files but I have found 3 that for some reason just show a blank screen on the PS3 while the audio plays fine. They also play fine on the PC. While they are playing on the PS3 I can hit the select button and it shows AVC and AAC with varying bitrates for both (usually if I have a video problem I get "-" instead of a bitrate displayed). I can play with Mencoder and it works, but I have never had to do that before

1) Computer - AMD FX-8320 3.49GHz, 4GB Ram, XP SP3
2) Streaming to - PS3
3) Connection - PC -> 100mb ethernet -> WTR54G with DD-WRT -> 100mb ethernet -> PS3
4) No transcoding

File that won't play
Code: Select all
General
Complete name                    : K:\VIDEO\Race1.mp4
Format                           : MPEG-4
Format profile                   : Base Media / Version 2
Codec ID                         : mp42
File size                        : 2.50 GiB
Duration                         : 1h 52mn
Overall bit rate                 : 3 192 Kbps
Encoded date                     : UTC 2013-03-18 23:35:02
Tagged date                      : UTC 2013-03-18 23:35:02

Video
ID                               : 2
Format                           : AVC
Format/Info                      : Advanced Video Codec
Format profile                   : Main@L5.0
Format settings, CABAC           : Yes
Format settings, ReFrames        : 5 frames
Codec ID                         : avc1
Codec ID/Info                    : Advanced Video Coding
Duration                         : 1h 52mn
Bit rate mode                    : Variable
Bit rate                         : 2 996 Kbps
Width                            : 1 920 pixels
Height                           : 1 080 pixels
Display aspect ratio             : 16/9
Frame rate mode                  : Constant
Frame rate                       : 29.970 fps
Standard                         : NTSC
Resolution                       : 24 bits
Colorimetry                      : 4:2:0
Scan type                        : Progressive
Bits/(Pixel*Frame)               : 0.048
Stream size                      : 2.35 GiB (94%)
Language                         : English
Encoded date                     : UTC 2013-03-18 23:35:02
Tagged date                      : UTC 2013-03-18 23:35:02

Audio
ID                               : 1
Format                           : AAC
Format/Info                      : Advanced Audio Codec
Format version                   : Version 4
Format profile                   : LC
Format settings, SBR             : No
Codec ID                         : 40
Duration                         : 1h 52mn
Bit rate mode                    : Constant
Bit rate                         : 192 Kbps
Channel(s)                       : 2 channels
Channel positions                : L R
Sampling rate                    : 48.0 KHz
Resolution                       : 16 bits
Stream size                      : 154 MiB (6%)
Language                         : English
Encoded date                     : UTC 2013-03-18 23:35:02
Tagged date                      : UTC 2013-03-18 23:35:02


One of many files that will play
Code: Select all
General
Complete name                    : K:\VIDEO\Race2.mp4
Format                           : MPEG-4
Format profile                   : Base Media
Codec ID                         : isom
File size                        : 757 MiB
Duration                         : 58mn 46s
Overall bit rate                 : 1 802 Kbps
Encoded date                     : UTC 2013-02-24 04:10:59
Tagged date                      : UTC 2013-02-24 04:10:59

Video
ID                               : 1
Format                           : AVC
Format/Info                      : Advanced Video Codec
Format profile                   : High@L4.1
Format settings, CABAC           : Yes
Format settings, ReFrames        : 4 frames
Codec ID                         : avc1
Codec ID/Info                    : Advanced Video Coding
Duration                         : 58mn 46s
Bit rate mode                    : Variable
Bit rate                         : 1 606 Kbps
Maximum bit rate                 : 4 303 Kbps
Width                            : 720 pixels
Height                           : 400 pixels
Display aspect ratio             : 16/9
Frame rate mode                  : Constant
Frame rate                       : 25.000 fps
Resolution                       : 24 bits
Colorimetry                      : 4:2:0
Scan type                        : Progressive
Bits/(Pixel*Frame)               : 0.223
Stream size                      : 675 MiB (89%)
Title                            : Race2#trackID=1:fps=25@GPAC0.5.1-DEV-rev4283
Encoded date                     : UTC 2013-02-24 04:10:59
Tagged date                      : UTC 2013-02-24 04:11:06

Audio
ID                               : 2
Format                           : AAC
Format/Info                      : Advanced Audio Codec
Format version                   : Version 4
Format profile                   : LC
Format settings, SBR             : No
Codec ID                         : 40
Duration                         : 58mn 46s
Bit rate mode                    : Variable
Bit rate                         : 192 Kbps
Maximum bit rate                 : 217 Kbps
Channel(s)                       : 2 channels
Channel positions                : L R
Sampling rate                    : 48.0 KHz
Resolution                       : 16 bits
Stream size                      : 80.7 MiB (11%)
Language                         : English
Encoded date                     : UTC 2013-02-24 03:42:19
Tagged date                      : UTC 2013-02-24 04:11:06


Thanks for any help.
Attachments
debug-.zip
(4.61 KiB) Downloaded 32 times
lemmy
 
Posts: 33
Joined: Tue Jun 30, 2009 5:14 am

Re: Blank screen with few mp4 files

Postby realdiamond » Tue Mar 26, 2013 1:40 pm

Black screen normal means the Encoder of the File messed up the H264 flags on the file.
Setting the File Profile as MAIN but using features of HIGH and so on.
Most common is setting the Bit rate to high and setting the level flag 1.0 - 5.1 to the wrong level...
Next up is Setting the colour to 8 bit but actually using 10 bit.

H264 should set things Automaticly to the correct flag levels but X264 encoders has manual command strings which can over ride the auto settings...

The PS3 will just go black screen when its detecting these errors...

PS3MS has the Remux option (tsmuxer in transcode folder) which forces all MP4 Files to the correct Profile flags to play on PS3. Except 10 bit colour Which will need a re-encode by the Mencoder (the the transcode folder option...) 10bit colour Is not supported on domestic BD players or even the PS3. New Stand alone units will be required for HI10 profile playback...
realdiamond
 
Posts: 4
Joined: Tue Mar 26, 2013 12:59 pm


Return to General Help and Support

Who is online

Users browsing this forum: Google [Bot] and 10 guests