Content cannnot be played

For help and support with PS3 Media Server in general
Forum rules
Please make sure you follow the Problem Reporting Guidelines before posting if you want a reply.

Re: Content cannnot be played

Postby foogle » Sun Aug 19, 2012 10:25 pm

I had this problem serving mp4 video files recorded with a Hauppage HD PVR. I nudged ffmpeg to the top of the transcode list, put mp4 into the force transcode field, saved the configuration and restarted the server. The PS3 then played the files fine.

Using PMS 1.60.0 on Mac Mini Mac OS X 10.8
foogle
 
Posts: 2
Joined: Fri Aug 10, 2012 10:20 pm

Re: Content cannnot be played

Postby Lampuhkap » Thu Dec 27, 2012 11:06 pm

After installing PS3MS again today on a fresh install and i got this error too. I was hoping there was a fix for this because i cannot stream any content anymore. It keeps getting errors and hanging up. :(
Lampuhkap
 
Posts: 6
Joined: Wed Jun 01, 2011 9:04 pm

Re: Content cannnot be played

Postby meskibob » Fri Dec 28, 2012 1:36 am

I provide NO application support via PM or email, so please post your question to the forum per the Forum Rules.
meskibob
Moderator
 
Posts: 4768
Joined: Mon Jan 19, 2009 4:11 pm

Re: Content cannnot be played

Postby Leopardi » Tue Jan 15, 2013 5:47 pm

I have the same, nothing plays, except this one file, I don't know if it helps you pinpoint the problem but here's the info for it:

Format : Matroska
Format version : Version 2
File size : 8.75 GiB
Duration : 2h 58mn
Overall bit rate : 7 024 Kbps
Encoded date : UTC 2010-11-09 15:46:39
Writing application : mkvmerge v3.4.0 ('Rapunzel') 编译于 May 15 2010 09:38:20
Writing library : libebml v0.8.0 + libmatroska v0.9.0

Video
ID : 1
Format : AVC
Format/Info : Advanced Video Codec
Format profile : High@L4.1
Format settings, CABAC : Yes
Format settings, ReFrames : 8 frames
Codec ID : V_MPEG4/ISO/AVC
Duration : 2h 58mn
Bit rate : 4 680 Kbps
Width : 1 280 pixels
Height : 544 pixels
Display aspect ratio : 2.35:1
Frame rate mode : Constant
Frame rate : 23.976 fps
Color space : YUV
Chroma subsampling : 4:2:0
Bit depth : 8 bits
Scan type : Progressive
Bits/(Pixel*Frame) : 0.280
Stream size : 5.66 GiB (65%)
Writing library : x264 core 107 r1745 4785e8e
Encoding settings : cabac=1 / ref=8 / deblock=1:-2:-2 / analyse=0x3:0x133 / me=umh / subme=9 / psy=1 / psy_rd=1.00:0.00 / mixed_ref=1 / me_range=16 / chroma_me=1 / trellis=1 / 8x8dct=1 / cqm=0 / deadzone=21,11 / fast_pskip=0 / chroma_qp_offset=-2 / threads=6 / sliced_threads=0 / nr=0 / decimate=0 / interlaced=0 / constrained_intra=0 / bframes=3 / b_pyramid=2 / b_adapt=2 / b_bias=0 / direct=3 / weightb=1 / open_gop=0 / weightp=2 / keyint=250 / keyint_min=2 / scenecut=40 / intra_refresh=0 / rc_lookahead=60 / rc=2pass / mbtree=1 / bitrate=4680 / ratetol=1.0 / qcomp=0.60 / qpmin=10 / qpmax=51 / qpstep=4 / cplxblur=20.0 / qblur=0.5 / vbv_maxrate=20000 / vbv_bufsize=20000 / ip_ratio=1.40 / aq=1:1.00 / nal_hrd=none
Language : English
Default : Yes
Forced : No

Audio #1
ID : 2
Format : DTS
Format/Info : Digital Theater Systems
Codec ID : A_DTS
Duration : 2h 58mn
Bit rate mode : Constant
Bit rate : 1 510 Kbps
Channel(s) : 6 channels
Channel positions : Front: L C R, Side: L R, LFE
Sampling rate : 48.0 KHz
Bit depth : 24 bits
Compression mode : Lossy
Stream size : 1.88 GiB (21%)
Language : English
Default : Yes
Forced : Yes

Audio #2
ID : 3
Format : AC-3
Format/Info : Audio Coding 3
Mode extension : CM (complete main)
Format settings, Endianness : Big
Codec ID : A_AC3
Duration : 2h 58mn
Bit rate mode : Constant
Bit rate : 384 Kbps
Channel(s) : 2 channels
Channel positions : Front: L R
Sampling rate : 48.0 KHz
Bit depth : 16 bits
Compression mode : Lossy
Stream size : 490 MiB (5%)
Language : Chinese
Default : No
Forced : No

Audio #3
ID : 4
Format : AC-3
Format/Info : Audio Coding 3
Mode extension : CM (complete main)
Format settings, Endianness : Big
Codec ID : A_AC3
Duration : 2h 58mn
Bit rate mode : Constant
Bit rate : 448 Kbps
Channel(s) : 6 channels
Channel positions : Front: L C R, Side: L R, LFE
Sampling rate : 48.0 KHz
Bit depth : 16 bits
Compression mode : Lossy
Stream size : 571 MiB (6%)
Language : Chinese
Default : No
Forced : No
Leopardi
 
Posts: 38
Joined: Thu Jan 20, 2011 8:46 am

Previous

Return to General Help and Support

Who is online

Users browsing this forum: Google [Bot] and 13 guests