Streaming to ADB-3800-TW set top box, MKV blackscreen

Discuss alternative media renderers (not PS3) supported by PS3 Media Server (e.g. Xbox 360, TVs &c.)

Streaming to ADB-3800-TW set top box, MKV blackscreen

Postby Lost » Sun Nov 11, 2012 10:37 am

Hi,

I want to stream my videos to the ADB-3800-TW set top box. It can play my avi-files without problems, but somehow I get only blackscreens for my MKV-files.

I have a i5-3450, 8GB RAM, Windows 7 Professional 64-Bit, PS3 Media Server (d4d1de9d0).

My rendererer config is this:
Code: Select all
RendererName=A1TV Box
RendererIcon=a1tv_box.png
UserAgentSearch=UPnP/1.0 DLNADOC/1.50 upnpcp/2.0
Video=true
Audio=true
Image=true
SeekByTime=false
TranscodeVideo=MPEGTSAC3
TranscodeAudio=MP3
DefaultVBVBufSize=false
MuxH264ToMpegTS=false
MuxDTSToMpeg=true
WrapDTSIntoPCM=false
MuxLPCMToMpeg=false
MaxVideoBitrateMbps=0
MaxVideoWidth=0
MaxVideoHeight=0
DLNALocalizationRequired=true
TranscodeExtensions=flv,mkv,avc,wmv,wma
StreamExtensions=avi,mpg,mpeg,ts,mp3,wav,mp4


MediaInfo of the video:
Code: Select all
Format                                   : Matroska
Format version                           : Version 2
File size                                : 4.82 GiB
Duration                                 : 1h 25mn
Overall bit rate                         : 8 052 Kbps
Encoded date                             : UTC 2011-04-25 03:50:22
Writing application                      : mkvmerge v4.6.0 ('Still Crazy After All These Years') gebaut am Mar 10 2011 02:50:32
Writing library                          : libebml v1.2.0 + libmatroska v1.1.0

Video
ID                                       : 1
Format                                   : AVC
Format/Info                              : Advanced Video Codec
Format profile                           : High@L4.1
Format settings, CABAC                   : Yes
Format settings, ReFrames                : 5 frames
Codec ID                                 : V_MPEG4/ISO/AVC
Duration                                 : 1h 25mn
Bit rate                                 : 7 235 Kbps
Width                                    : 1 920 pixels
Height                                   : 800 pixels
Display aspect ratio                     : 2.40:1
Frame rate mode                          : Constant
Frame rate                               : 23.976 fps
Color space                              : YUV
Chroma subsampling                       : 4:2:0
Bit depth                                : 8 bits
Scan type                                : Progressive
Bits/(Pixel*Frame)                       : 0.196
Stream size                              : 4.26 GiB (88%)
Writing library                          : x264 core 80 r1376M 3feaec2
Encoding settings                        : cabac=1 / ref=5 / deblock=1:-3:-3 / analyse=0x3:0x113 / me=umh / subme=10 / psy=1 / psy_rd=1.5:0.0 / mixed_ref=1 / me_range=24 / chroma_me=1 / trellis=2 / 8x8dct=1 / cqm=0 / deadzone=21,11 / fast_pskip=1 / chroma_qp_offset=-2 / threads=6 / sliced_threads=0 / nr=0 / decimate=1 / mbaff=0 / constrained_intra=0 / bframes=5 / b_pyramid=0 / b_adapt=2 / b_bias=0 / direct=3 / wpredb=1 / wpredp=2 / keyint=250 / keyint_min=25 / scenecut=40 / rc_lookahead=80 / rc=2pass / mbtree=1 / bitrate=7235 / ratetol=1.0 / qcomp=0.80 / qpmin=10 / qpmax=51 / qpstep=4 / cplxblur=20.0 / qblur=0.5 / ip_ratio=1.40 / aq=1:0.80
Language                                 : English
Default                                  : No
Forced                                   : No

Audio
ID                                       : 2
Format                                   : DTS
Format/Info                              : Digital Theater Systems
Mode                                     : 16
Format settings, Endianness              : Big
Codec ID                                 : A_DTS
Duration                                 : 1h 25mn
Bit rate mode                            : Constant
Bit rate                                 : 768 Kbps
Channel(s)                               : 6 channels
Channel positions                        : Front: L C R, Side: L R, LFE
Sampling rate                            : 48.0 KHz
Bit depth                                : 24 bits
Compression mode                         : Lossy
Stream size                              : 470 MiB (10%)
Language                                 : German
Default                                  : No
Forced                                   : No


I don't get any error messages in the log.

Thanks in advance for your help!
Lost
 
Posts: 2
Joined: Sun Nov 11, 2012 10:27 am

Re: Streaming to ADB-3800-TW set top box, MKV blackscreen

Postby joseff » Mon Nov 12, 2012 3:49 am

Hello,
I'm not sure if this help you, but some informations are here:
http://forum.ican3800.zajsoft.net/viewtopic.php?f=11&t=206

My question is, is in your box the original Firmware from Telefonica, or some else?
joseff
 
Posts: 2
Joined: Mon Nov 12, 2012 3:19 am

Re: Streaming to ADB-3800-TW set top box, MKV blackscreen

Postby Lost » Thu Nov 22, 2012 12:13 am

joseff wrote:Hello,
I'm not sure if this help you, but some informations are here:
http://forum.ican3800.zajsoft.net/viewtopic.php?f=11&t=206

My question is, is in your box the original Firmware from Telefonica, or some else?


Oh, thanks for the link, but I'm sorry, I don't understand this language. The firmware is original from A1 (Austria).
Lost
 
Posts: 2
Joined: Sun Nov 11, 2012 10:27 am

Re: Streaming to ADB-3800-TW set top box, MKV blackscreen

Postby joseff » Thu Nov 22, 2012 8:41 pm

If you are from Austria, so we can talk in German language. My German si very good.
The link is to a Czech forum.
Use google translator to translate the whole site.
Just put in it the link, choose the input language and the output language. :D

What are the SW differences between your box and the our?
Look here:
http://ican3800.zajsoft.net/thumb.html
http://ican3800.zajsoft.net/Fotky_Damec/thumb.html
- here are the pictures what is the box able to do after Flashing and installation Mediacenter Damec + small fixes 1.0

IPTV is after Flashing not working because the Firmware is old.
We have a new actual Firmware version, but we have trouble with packing. The checksum is not correct.

Are you satisfied with the original SW (interface)?
Are you using IPTV, or terrestrial signal?
Are you able to get somehow the Firmware used in Austria?
joseff
 
Posts: 2
Joined: Mon Nov 12, 2012 3:19 am

Re: Streaming to ADB-3800-TW set top box, MKV blackscreen

Postby tomtom76 » Sun Dec 02, 2012 7:52 pm

Lost wrote:Hi,

I want to stream my videos to the ADB-3800-TW set top box. It can play my avi-files without problems, but somehow I get only blackscreens for my MKV-files.

did you find a way to solve this problem?
my adb-3800-tw does even not start to playback any file...

which profile did you use?
tomtom76
 
Posts: 1
Joined: Sun Dec 02, 2012 6:49 pm


Return to Alternative Media Renderers

Who is online

Users browsing this forum: Bing [Bot] and 8 guests