PS3 plays MP4 natively from USB, but transcodes from PMS

For help and support with PS3 Media Server in general
Forum rules
Please make sure you follow the Problem Reporting Guidelines before posting if you want a reply.

PS3 plays MP4 natively from USB, but transcodes from PMS

Postby mauriziocorso77 » Thu Jun 28, 2012 3:55 am

So I have an MP4 which I don't want to be transcoded to my PS3 (there are A/V sync issues, checking and unchecking boxes doesnt change anything) and I have put "mp4" into the skip trancode field as well, yet it still transcodes.
I know this MP4 is playable on my PS3 as I have copied it to a USB and it plays perfectly from it.
There doesn't appear to be any errors in the logs.
How do I get it to stream using PMS?

I'm using PMS 1.54 on OS Lion on the latest iMac streaming via Ethernet.

This is the info on the file from MediaInfo

Code: Select all
Format                                   : MPEG-4
Format profile                           : Base Media
Codec ID                                 : isom
File size                                : 260 MiB
Duration                                 : 43mn 11s
Overall bit rate mode                    : Variable
Overall bit rate                         : 842 Kbps
Encoded date                             : UTC 2012-03-22 13:13:00
Tagged date                              : UTC 2012-03-22 13:13:00

Video
ID                                       : 1
Format                                   : AVC
Format/Info                              : Advanced Video Codec
Format profile                           : High@L3.1
Format settings, CABAC                   : Yes
Format settings, ReFrames                : 5 frames
Codec ID                                 : avc1
Codec ID/Info                            : Advanced Video Coding
Duration                                 : 43mn 11s
Bit rate                                 : 721 Kbps
Maximum bit rate                         : 5 414 Kbps
Width                                    : 720 pixels
Height                                   : 404 pixels
Display aspect ratio                     : 16:9
Frame rate mode                          : Constant
Frame rate                               : 23.976 fps
Color space                              : YUV
Chroma subsampling                       : 4:2:0
Bit depth                                : 8 bits
Scan type                                : Progressive
Bits/(Pixel*Frame)                       : 0.103
Stream size                              : 223 MiB (86%)
Writing library                          : x264 core 122 r2184 5c85e0a
Encoding settings                        : cabac=1 / ref=5 / deblock=1:1:1 / analyse=0x3:0x133 / me=umh / subme=9 / psy=1 / psy_rd=1.00:0.00 / mixed_ref=1 / me_range=16 / chroma_me=1 / trellis=2 / 8x8dct=1 / cqm=0 / deadzone=21,11 / fast_pskip=1 / chroma_qp_offset=-2 / threads=12 / sliced_threads=0 / nr=0 / decimate=1 / interlaced=0 / bluray_compat=0 / constrained_intra=0 / bframes=3 / b_pyramid=2 / b_adapt=2 / b_bias=0 / direct=3 / weightb=1 / open_gop=0 / weightp=2 / keyint=250 / keyint_min=23 / scenecut=40 / intra_refresh=0 / rc_lookahead=60 / rc=crf / mbtree=1 / crf=20.0 / qcomp=0.60 / qpmin=0 / qpmax=69 / qpstep=4 / ip_ratio=1.40 / aq=1:1.00
Encoded date                             : UTC 2012-03-22 12:48:48
Tagged date                              : UTC 2012-03-22 13:13:04
Matrix coefficients                      : BT.709-5, BT.1361, IEC 61966-2-4 709, SMPTE RP177

Audio
ID                                       : 2
Format                                   : AAC
Format/Info                              : Advanced Audio Codec
Format profile                           : LC
Codec ID                                 : 40
Duration                                 : 43mn 11s
Bit rate mode                            : Variable
Bit rate                                 : 117 Kbps
Maximum bit rate                         : 163 Kbps
Channel(s)                               : 2 channels
Channel positions                        : Front: L R
Sampling rate                            : 48.0 KHz
Compression mode                         : Lossy
Stream size                              : 36.3 MiB (14%)
Encoded date                             : UTC 2012-03-22 13:13:04
Tagged date                              : UTC 2012-03-22 13:13:04
Last edited by Raptor399 on Mon Jul 02, 2012 8:33 pm, edited 1 time in total.
Reason: Edited for code fragments
mauriziocorso77
 
Posts: 5
Joined: Thu Jun 28, 2012 3:50 am

Re: PS3 plays MP4 natively from USB, but transcodes from PMS

Postby happy.neko » Thu Jun 28, 2012 9:42 am

Is mediainfo loaded correctly?
Post full debug.log.
happy.neko
Project Member
 
Posts: 478
Joined: Fri Sep 23, 2011 5:38 pm

Re: PS3 plays MP4 natively from USB, but transcodes from PMS

Postby mauriziocorso77 » Mon Jul 02, 2012 10:41 am

This is what mediainfo spits out


Code: Select all
General
Count                                    : 279
Count of stream of this kind             : 1
Kind of stream                           : General
Kind of stream                           : General
Stream identifier                        : 0
Inform                                   : MPEG-4 (Base Media): 260 MiB, 43mn 11s
Count of video streams                   : 1
Count of audio streams                   : 1
Video_Format_List                        : AVC
Video_Format_WithHint_List               : AVC
Codecs Video                             : AVC
Audio_Format_List                        : AAC
Audio_Format_WithHint_List               : AAC
Audio codecs                             : AAC LC
File extension                           : mp4
Format                                   : MPEG-4
Format                                   : MPEG-4
Format/Extensions usually used           : mp4 m4v m4a m4b m4p 3gpp 3gp 3gpp2 3g2 k3g jpm jpx mqv ismv isma f4v
Commercial name                          : MPEG-4
Format profile                           : Base Media
Internet media type                      : video/mp4
Codec ID                                 : isom
Codec ID/Url                             : http://www.apple.com/quicktime/download/standalone.html
Codec                                    : MPEG-4
Codec                                    : MPEG-4
Codec/Extensions usually used            : mp4 m4v m4a m4b m4p 3gpp 3gp 3gpp2 3g2 k3g jpm jpx mqv ismv isma f4v
File size                                : 272839991
File size                                : 260 MiB
File size                                : 260 MiB
File size                                : 260 MiB
File size                                : 260 MiB
File size                                : 260.2 MiB
Duration                                 : 2591402
Duration                                 : 43mn 11s
Duration                                 : 43mn 11s 402ms
Duration                                 : 43mn 11s
Duration                                 : 00:43:11.402
Overall bit rate mode                    : VBR
Overall bit rate mode                    : Variable
Overall bit rate                         : 842293
Overall bit rate                         : 842 Kbps
Stream size                              : 1344330
Stream size                              : 1.28 MiB (0%)
Stream size                              : 1 MiB
Stream size                              : 1.3 MiB
Stream size                              : 1.28 MiB
Stream size                              : 1.282 MiB
Stream size                              : 1.28 MiB (0%)
Proportion of this stream                : 0.00493
HeaderSize                               : 1344267
DataSize                                 : 271495669
FooterSize                               : 55
IsStreamable                             : Yes
Encoded date                             : UTC 2012-03-22 13:13:00
Tagged date                              : UTC 2012-03-22 13:13:00
File last modification date              : UTC 2012-05-03 00:13:06
File last modification date (local)      : 2012-05-03 10:13:06

Video
Count                                    : 249
Count of stream of this kind             : 1
Kind of stream                           : Video
Kind of stream                           : Video
Stream identifier                        : 0
Inform                                   : 721 Kbps, 720*404 (16:9), at 23.976 fps, AVC (High@L3.1) (CABAC / 5 Ref Frames)
ID                                       : 1
ID                                       : 1
Format                                   : AVC
Format/Info                              : Advanced Video Codec
Format/Url                               : http://developers.videolan.org/x264.html
Commercial name                          : AVC
Format profile                           : High@L3.1
Format settings                          : CABAC / 5 Ref Frames
Format settings, CABAC                   : Yes
Format settings, CABAC                   : Yes
Format settings, ReFrames                : 5
Format settings, ReFrames                : 5 frames
Internet media type                      : video/H264
Codec ID                                 : avc1
Codec ID/Info                            : Advanced Video Coding
Codec ID/Url                             : http://www.apple.com/quicktime/download/standalone.html
Codec                                    : AVC
Codec                                    : AVC
Codec/Family                             : AVC
Codec/Info                               : Advanced Video Codec
Codec/Url                                : http://developers.videolan.org/x264.html
Codec/CC                                 : avc1
Codec profile                            : High@L3.1
Codec settings                           : CABAC / 5 Ref Frames
Codec settings, CABAC                    : Yes
Codec_Settings_RefFrames                 : 5
Duration                                 : 2591297
Duration                                 : 43mn 11s
Duration                                 : 43mn 11s 297ms
Duration                                 : 43mn 11s
Duration                                 : 00:43:11.297
Bit rate                                 : 720750
Bit rate                                 : 721 Kbps
Maximum bit rate                         : 5414008
Maximum bit rate                         : 5 414 Kbps
Width                                    : 720
Width                                    : 720 pixels
Height                                   : 404
Height                                   : 404 pixels
Pixel aspect ratio                       : 1.000
Display aspect ratio                     : 1.782
Display aspect ratio                     : 16:9
Rotation                                 : 0.000
Frame rate mode                          : CFR
Frame rate mode                          : Constant
Frame rate                               : 23.976
Frame rate                               : 23.976 fps
Frame count                              : 62129
Resolution                               : 8
Resolution                               : 8 bits
Colorimetry                              : 4:2:0
Color space                              : YUV
Chroma subsampling                       : 4:2:0
Bit depth                                : 8
Bit depth                                : 8 bits
Scan type                                : Progressive
Scan type                                : Progressive
Interlacement                            : PPF
Interlacement                            : Progressive
Bits/(Pixel*Frame)                       : 0.103
Delay                                    : 3337
Delay                                    : 3s 337ms
Delay                                    : 3s 337ms
Delay                                    : 3s 337ms
Delay                                    : 00:00:03.337
Delay, origin                            : Container
Delay, origin                            : Container
Stream size                              : 233459983
Stream size                              : 223 MiB (86%)
Stream size                              : 223 MiB
Stream size                              : 223 MiB
Stream size                              : 223 MiB
Stream size                              : 222.6 MiB
Stream size                              : 223 MiB (86%)
Proportion of this stream                : 0.85567
Writing library                          : x264 - core 122 r2184 5c85e0a
Writing library                          : x264 core 122 r2184 5c85e0a
Writing library/Name                     : x264
Writing library/Version                  : core 122 r2184 5c85e0a
Encoding settings                        : cabac=1 / ref=5 / deblock=1:1:1 / analyse=0x3:0x133 / me=umh / subme=9 / psy=1 / psy_rd=1.00:0.00 / mixed_ref=1 / me_range=16 / chroma_me=1 / trellis=2 / 8x8dct=1 / cqm=0 / deadzone=21,11 / fast_pskip=1 / chroma_qp_offset=-2 / threads=12 / sliced_threads=0 / nr=0 / decimate=1 / interlaced=0 / bluray_compat=0 / constrained_intra=0 / bframes=3 / b_pyramid=2 / b_adapt=2 / b_bias=0 / direct=3 / weightb=1 / open_gop=0 / weightp=2 / keyint=250 / keyint_min=23 / scenecut=40 / intra_refresh=0 / rc_lookahead=60 / rc=crf / mbtree=1 / crf=20.0 / qcomp=0.60 / qpmin=0 / qpmax=69 / qpstep=4 / ip_ratio=1.40 / aq=1:1.00
Encoded date                             : UTC 2012-03-22 12:48:48
Tagged date                              : UTC 2012-03-22 13:13:04
Matrix coefficients                      : BT.709-5, BT.1361, IEC 61966-2-4 709, SMPTE RP177

Audio
Count                                    : 217
Count of stream of this kind             : 1
Kind of stream                           : Audio
Kind of stream                           : Audio
Stream identifier                        : 0
Inform                                   : 117 Kbps, 48.0 KHz, 2 channels, AAC (LC)
ID                                       : 2
ID                                       : 2
Format                                   : AAC
Format/Info                              : Advanced Audio Codec
Commercial name                          : AAC
Format profile                           : LC
Format settings, SBR                     : No (Explicit)
Format settings, SBR                     : No (Explicit)
Codec ID                                 : 40
Codec                                    : AAC LC
Codec                                    : AAC LC
Codec/Family                             : AAC
Codec/CC                                 : 40
Duration                                 : 2591402
Duration                                 : 43mn 11s
Duration                                 : 43mn 11s 402ms
Duration                                 : 43mn 11s
Duration                                 : 00:43:11.402
Bit rate mode                            : VBR
Bit rate mode                            : Variable
Bit rate                                 : 117416
Bit rate                                 : 117 Kbps
Maximum bit rate                         : 163408
Maximum bit rate                         : 163 Kbps
Channel(s)                               : 2
Channel(s)                               : 2 channels
Channel positions                        : Front: L R
Channel positions                        : 2/0/0
Sampling rate                            : 48000
Sampling rate                            : 48.0 KHz
Samples count                            : 124387296
Frame count                              : 121472
Compression mode                         : Lossy
Compression mode                         : Lossy
Delay                                    : 0
Delay                                    : 00:00:00.000
Delay, origin                            : Container
Delay, origin                            : Container
Delay relative to video                  : -3337
Video0 delay                             : -3337
Stream size                              : 38035678
Stream size                              : 36.3 MiB (14%)
Stream size                              : 36 MiB
Stream size                              : 36 MiB
Stream size                              : 36.3 MiB
Stream size                              : 36.27 MiB
Stream size                              : 36.3 MiB (14%)
Proportion of this stream                : 0.13941
Encoded date                             : UTC 2012-03-22 13:13:04
Tagged date                              : UTC 2012-03-22 13:13:04
Last edited by Raptor399 on Mon Jul 02, 2012 8:33 pm, edited 1 time in total.
Reason: Edited for code fragments
mauriziocorso77
 
Posts: 5
Joined: Thu Jun 28, 2012 3:50 am

Re: PS3 plays MP4 natively from USB, but transcodes from PMS

Postby Dufus » Tue Jul 03, 2012 1:23 am

I am in the same boat as above.
PS3 mediaserver 1.54.0
mac osx lion 10.7.4

to answer the question about does mediainfo load properly? I believe the answer is no, from the log:

Code: Select all
INFO  2012-07-02 20:09:11.126 [main]
INFO  2012-07-02 20:09:11.162 [main] Loading MediaInfo library
INFO  2012-07-02 20:09:11.964 [main] Error loading MediaInfo library: Unable to load library 'mediainfo': dlopen(libmediainfo.dylib, 9): no suitable image found.  Did find:
   libmediainfo.dylib: mach-o, but wrong architecture
INFO  2012-07-02 20:09:11.964 [main] The server will now use the less accurate ffmpeg parsing method


how does one go about correcting this?

cheers,
Dufus
 
Posts: 1
Joined: Tue Jul 03, 2012 1:18 am

Re: PS3 plays MP4 natively from USB, but transcodes from PMS

Postby Raptor399 » Tue Jul 03, 2012 7:40 am

I tried this in a Terminal (I'm on OSX Lion too):

Code: Select all
> lipo -detailed_info libmediainfo.dylib
input file libmediainfo.dylib is not a fat file
Non-fat file: libmediainfo.dylib is architecture: i386


That sounds correct to me, since the rest of PMS binaries for OSX were built for the i386 architecture as well and you are not reporting problems with e.g. mencoder itself.

You can download another version of libmediainfo.dylib from the project at SourceForge if you want to experiment.
Raptor399
Project Member
 
Posts: 1916
Joined: Thu Mar 10, 2011 12:06 am

Re: PS3 plays MP4 natively from USB, but transcodes from PMS

Postby happy.neko » Tue Jul 03, 2012 1:17 pm

mauriziocorso77 wrote:This is what mediainfo spits out


Code: Select all
General
Count                                    : 279
Count of stream of this kind             : 1
Kind of stream                           : General
Kind of stream                           : General
Stream identifier                        : 0
Inform                                   : MPEG-4 (Base Media): 260 MiB, 43mn 11s
Count of video streams                   : 1
Count of audio streams                   : 1
Video_Format_List                        : AVC
Video_Format_WithHint_List               : AVC
Codecs Video                             : AVC
Audio_Format_List                        : AAC
Audio_Format_WithHint_List               : AAC
Audio codecs                             : AAC LC
File extension                           : mp4
Format                                   : MPEG-4
Format                                   : MPEG-4
Format/Extensions usually used           : mp4 m4v m4a m4b m4p 3gpp 3gp 3gpp2 3g2 k3g jpm jpx mqv ismv isma f4v
Commercial name                          : MPEG-4
Format profile                           : Base Media
Internet media type                      : video/mp4
Codec ID                                 : isom
Codec ID/Url                             : http://www.apple.com/quicktime/download/standalone.html
Codec                                    : MPEG-4
Codec                                    : MPEG-4
Codec/Extensions usually used            : mp4 m4v m4a m4b m4p 3gpp 3gp 3gpp2 3g2 k3g jpm jpx mqv ismv isma f4v
File size                                : 272839991
File size                                : 260 MiB
File size                                : 260 MiB
File size                                : 260 MiB
File size                                : 260 MiB
File size                                : 260.2 MiB
Duration                                 : 2591402
Duration                                 : 43mn 11s
Duration                                 : 43mn 11s 402ms
Duration                                 : 43mn 11s
Duration                                 : 00:43:11.402
Overall bit rate mode                    : VBR
Overall bit rate mode                    : Variable
Overall bit rate                         : 842293
Overall bit rate                         : 842 Kbps
Stream size                              : 1344330
Stream size                              : 1.28 MiB (0%)
Stream size                              : 1 MiB
Stream size                              : 1.3 MiB
Stream size                              : 1.28 MiB
Stream size                              : 1.282 MiB
Stream size                              : 1.28 MiB (0%)
Proportion of this stream                : 0.00493
HeaderSize                               : 1344267
DataSize                                 : 271495669
FooterSize                               : 55
IsStreamable                             : Yes
Encoded date                             : UTC 2012-03-22 13:13:00
Tagged date                              : UTC 2012-03-22 13:13:00
File last modification date              : UTC 2012-05-03 00:13:06
File last modification date (local)      : 2012-05-03 10:13:06

Video
Count                                    : 249
Count of stream of this kind             : 1
Kind of stream                           : Video
Kind of stream                           : Video
Stream identifier                        : 0
Inform                                   : 721 Kbps, 720*404 (16:9), at 23.976 fps, AVC (High@L3.1) (CABAC / 5 Ref Frames)
ID                                       : 1
ID                                       : 1
Format                                   : AVC
Format/Info                              : Advanced Video Codec
Format/Url                               : http://developers.videolan.org/x264.html
Commercial name                          : AVC
Format profile                           : High@L3.1
Format settings                          : CABAC / 5 Ref Frames
Format settings, CABAC                   : Yes
Format settings, CABAC                   : Yes
Format settings, ReFrames                : 5
Format settings, ReFrames                : 5 frames
Internet media type                      : video/H264
Codec ID                                 : avc1
Codec ID/Info                            : Advanced Video Coding
Codec ID/Url                             : http://www.apple.com/quicktime/download/standalone.html
Codec                                    : AVC
Codec                                    : AVC
Codec/Family                             : AVC
Codec/Info                               : Advanced Video Codec
Codec/Url                                : http://developers.videolan.org/x264.html
Codec/CC                                 : avc1
Codec profile                            : High@L3.1
Codec settings                           : CABAC / 5 Ref Frames
Codec settings, CABAC                    : Yes
Codec_Settings_RefFrames                 : 5
Duration                                 : 2591297
Duration                                 : 43mn 11s
Duration                                 : 43mn 11s 297ms
Duration                                 : 43mn 11s
Duration                                 : 00:43:11.297
Bit rate                                 : 720750
Bit rate                                 : 721 Kbps
Maximum bit rate                         : 5414008
Maximum bit rate                         : 5 414 Kbps
Width                                    : 720
Width                                    : 720 pixels
Height                                   : 404
Height                                   : 404 pixels
Pixel aspect ratio                       : 1.000
Display aspect ratio                     : 1.782
Display aspect ratio                     : 16:9
Rotation                                 : 0.000
Frame rate mode                          : CFR
Frame rate mode                          : Constant
Frame rate                               : 23.976
Frame rate                               : 23.976 fps
Frame count                              : 62129
Resolution                               : 8
Resolution                               : 8 bits
Colorimetry                              : 4:2:0
Color space                              : YUV
Chroma subsampling                       : 4:2:0
Bit depth                                : 8
Bit depth                                : 8 bits
Scan type                                : Progressive
Scan type                                : Progressive
Interlacement                            : PPF
Interlacement                            : Progressive
Bits/(Pixel*Frame)                       : 0.103
Delay                                    : 3337
Delay                                    : 3s 337ms
Delay                                    : 3s 337ms
Delay                                    : 3s 337ms
Delay                                    : 00:00:03.337
Delay, origin                            : Container
Delay, origin                            : Container
Stream size                              : 233459983
Stream size                              : 223 MiB (86%)
Stream size                              : 223 MiB
Stream size                              : 223 MiB
Stream size                              : 223 MiB
Stream size                              : 222.6 MiB
Stream size                              : 223 MiB (86%)
Proportion of this stream                : 0.85567
Writing library                          : x264 - core 122 r2184 5c85e0a
Writing library                          : x264 core 122 r2184 5c85e0a
Writing library/Name                     : x264
Writing library/Version                  : core 122 r2184 5c85e0a
Encoding settings                        : cabac=1 / ref=5 / deblock=1:1:1 / analyse=0x3:0x133 / me=umh / subme=9 / psy=1 / psy_rd=1.00:0.00 / mixed_ref=1 / me_range=16 / chroma_me=1 / trellis=2 / 8x8dct=1 / cqm=0 / deadzone=21,11 / fast_pskip=1 / chroma_qp_offset=-2 / threads=12 / sliced_threads=0 / nr=0 / decimate=1 / interlaced=0 / bluray_compat=0 / constrained_intra=0 / bframes=3 / b_pyramid=2 / b_adapt=2 / b_bias=0 / direct=3 / weightb=1 / open_gop=0 / weightp=2 / keyint=250 / keyint_min=23 / scenecut=40 / intra_refresh=0 / rc_lookahead=60 / rc=crf / mbtree=1 / crf=20.0 / qcomp=0.60 / qpmin=0 / qpmax=69 / qpstep=4 / ip_ratio=1.40 / aq=1:1.00
Encoded date                             : UTC 2012-03-22 12:48:48
Tagged date                              : UTC 2012-03-22 13:13:04
Matrix coefficients                      : BT.709-5, BT.1361, IEC 61966-2-4 709, SMPTE RP177

Audio
Count                                    : 217
Count of stream of this kind             : 1
Kind of stream                           : Audio
Kind of stream                           : Audio
Stream identifier                        : 0
Inform                                   : 117 Kbps, 48.0 KHz, 2 channels, AAC (LC)
ID                                       : 2
ID                                       : 2
Format                                   : AAC
Format/Info                              : Advanced Audio Codec
Commercial name                          : AAC
Format profile                           : LC
Format settings, SBR                     : No (Explicit)
Format settings, SBR                     : No (Explicit)
Codec ID                                 : 40
Codec                                    : AAC LC
Codec                                    : AAC LC
Codec/Family                             : AAC
Codec/CC                                 : 40
Duration                                 : 2591402
Duration                                 : 43mn 11s
Duration                                 : 43mn 11s 402ms
Duration                                 : 43mn 11s
Duration                                 : 00:43:11.402
Bit rate mode                            : VBR
Bit rate mode                            : Variable
Bit rate                                 : 117416
Bit rate                                 : 117 Kbps
Maximum bit rate                         : 163408
Maximum bit rate                         : 163 Kbps
Channel(s)                               : 2
Channel(s)                               : 2 channels
Channel positions                        : Front: L R
Channel positions                        : 2/0/0
Sampling rate                            : 48000
Sampling rate                            : 48.0 KHz
Samples count                            : 124387296
Frame count                              : 121472
Compression mode                         : Lossy
Compression mode                         : Lossy
Delay                                    : 0
Delay                                    : 00:00:00.000
Delay, origin                            : Container
Delay, origin                            : Container
Delay relative to video                  : -3337
Video0 delay                             : -3337
Stream size                              : 38035678
Stream size                              : 36.3 MiB (14%)
Stream size                              : 36 MiB
Stream size                              : 36 MiB
Stream size                              : 36.3 MiB
Stream size                              : 36.27 MiB
Stream size                              : 36.3 MiB (14%)
Proportion of this stream                : 0.13941
Encoded date                             : UTC 2012-03-22 13:13:04
Tagged date                              : UTC 2012-03-22 13:13:04

You file is fine and should be natively playable with PS3. The problem is ps3ms can't properly parse it thats why I need debug.log to see if mediainfolib was loaded.
happy.neko
Project Member
 
Posts: 478
Joined: Fri Sep 23, 2011 5:38 pm

Re: PS3 plays MP4 natively from USB, but transcodes from PMS

Postby mauriziocorso77 » Wed Jul 04, 2012 3:06 am

Dufus wrote:I am in the same boat as above.
PS3 mediaserver 1.54.0
mac osx lion 10.7.4

to answer the question about does mediainfo load properly? I believe the answer is no, from the log:

Code: Select all
INFO  2012-07-02 20:09:11.126 [main]
INFO  2012-07-02 20:09:11.162 [main] Loading MediaInfo library
INFO  2012-07-02 20:09:11.964 [main] Error loading MediaInfo library: Unable to load library 'mediainfo': dlopen(libmediainfo.dylib, 9): no suitable image found.  Did find:
   libmediainfo.dylib: mach-o, but wrong architecture
INFO  2012-07-02 20:09:11.964 [main] The server will now use the less accurate ffmpeg parsing method


how does one go about correcting this?

cheers,


This is exactly what I get in the debug.log too.
mauriziocorso77
 
Posts: 5
Joined: Thu Jun 28, 2012 3:50 am

Re: PS3 plays MP4 natively from USB, but transcodes from PMS

Postby mauriziocorso77 » Wed Jul 04, 2012 3:24 am

I Fixed it!!!! The problem is indeed Mediainfo.dylib
I replaced it with the newest version from Sourceforge
http://sourceforge.net/projects/mediain ... o0/0.7.58/

Everything works perfectly now. Thanks a bunch!!!! :D :D
mauriziocorso77
 
Posts: 5
Joined: Thu Jun 28, 2012 3:50 am

Re: PS3 plays MP4 natively from USB, but transcodes from PMS

Postby Raptor399 » Wed Jul 04, 2012 6:21 pm

That's great!

Out of curiosity: what does "lipo -detailed_info libmediainfo.dylib" say?
Raptor399
Project Member
 
Posts: 1916
Joined: Thu Mar 10, 2011 12:06 am

Re: PS3 plays MP4 natively from USB, but transcodes from PMS

Postby mauriziocorso77 » Thu Jul 05, 2012 4:26 am

Raptor399 wrote:That's great!

Out of curiosity: what does "lipo -detailed_info libmediainfo.dylib" say?


Code: Select all
Fat header in: libmediainfo.dylib
fat_magic 0xcafebabe
nfat_arch 2
architecture i386
    cputype CPU_TYPE_I386
    cpusubtype CPU_SUBTYPE_I386_ALL
    offset 4096
    size 5669980
    align 2^12 (4096)
architecture x86_64
    cputype CPU_TYPE_X86_64
    cpusubtype CPU_SUBTYPE_X86_64_ALL
    offset 5677056
    size 5270848
    align 2^12 (4096)
mauriziocorso77
 
Posts: 5
Joined: Thu Jun 28, 2012 3:50 am

Next

Return to General Help and Support

Who is online

Users browsing this forum: Yahoo [Bot] and 15 guests