PMS SubJunk Build

Download and discuss official beta builds here

Re: PMS SubJunk Build 68 (Updated 2012-03-15)

Postby SubJunk » Sun Mar 18, 2012 11:14 pm

mkvguy wrote:It definitely plays fine under mplayer, so what breaks it under PMS/PS3?
MPlayer and MEncoder can produce very different results. Have you tested it with MEncoder or just MPlayer?
SubJunk
 
Posts: 1210
Joined: Fri Mar 27, 2009 5:25 am

Re: PMS SubJunk Build 68 (Updated 2012-03-15)

Postby mkvguy » Mon Mar 19, 2012 6:57 am

I've played the file with mplayer, and via PMS (which should run mencoder underneath?). Do you mean if I've run mencoder on its own by myself?
* PMS 1.51.0-SB68
* Fedora Linux 64bit
* mplayer/mencoder SVN-r33254
* Sony Bravia KDL-40W2000
* Playstation 3
* Java 1.6.0.0-50.1.8.7
mkvguy
 
Posts: 46
Joined: Mon Mar 22, 2010 6:36 pm

Re: PMS SubJunk Build 68 (Updated 2012-03-15)

Postby SubJunk » Mon Mar 19, 2012 7:04 am

Yep, because the problem is probably with MEncoder
SubJunk
 
Posts: 1210
Joined: Fri Mar 27, 2009 5:25 am

Re: PMS SubJunk Build 68 (Updated 2012-03-15)

Postby mazey » Mon Mar 19, 2012 7:24 am

SubJunk wrote:Yep, because the problem is probably with MEncoder


ive been having problems since mencoder sb26 audio/video is out of sync tried everything. reverting to sb25 fixes it.
mazey
 
Posts: 772
Joined: Sat Oct 24, 2009 9:07 am

Re: PMS SubJunk Build 68 (Updated 2012-03-15)

Postby SubJunk » Mon Mar 19, 2012 7:36 am

It's all perfect for me. Might be a cache issue for you, I think sometimes it uses an old cache and screws itself up or something
SubJunk
 
Posts: 1210
Joined: Fri Mar 27, 2009 5:25 am

Re: PMS SubJunk Build 68 (Updated 2012-03-15)

Postby mazey » Mon Mar 19, 2012 12:14 pm

SubJunk wrote:It's all perfect for me. Might be a cache issue for you, I think sometimes it uses an old cache and screws itself up or something


how can i fix it?
mazey
 
Posts: 772
Joined: Sat Oct 24, 2009 9:07 am

Re: PMS SubJunk Build 68 (Updated 2012-03-15)

Postby meskibob » Mon Mar 19, 2012 12:42 pm

Use the "Reset cache" button under the Navigation/Share Settings tab, or close PMS and delete the "database" folder in the install directory.
I provide NO application support via PM or email, so please post your question to the forum per the Forum Rules.
meskibob
Moderator
 
Posts: 4768
Joined: Mon Jan 19, 2009 4:11 pm

Re: PMS SubJunk Build 68 (Updated 2012-03-15)

Postby ExSport » Mon Mar 19, 2012 1:21 pm

Same by me. No sync problems so I can't understand why some have problems but most not.
I have PMS installed on 3 different systems, all Windows and everyting is working without sync problems whatever tsMuxeR or MEncoder is used.
I spotted only problem when PC or NETWORK is not powerfully enough so when it starts to lag and fixes in a second, audio is shifted due to this short slowness.
Stopping file and playing it again immediately allways fixed this behavior.
It leads me to the opinion that if someone has problem it is because user is not under windows, uses slow CPU/network or has bad settings in PMS.
Or that user uses MP4 which I don't have so can't test it 8-) Anyway all my AVI(DivX/XviD), MKV,MTS(h264) files with AC3/DTS/MP3 works flawlessly...I don't use AAC...
ExSport
 
Posts: 2167
Joined: Mon Jan 19, 2009 5:40 pm

Re: PMS SubJunk Build 68 (Updated 2012-03-15)

Postby mazey » Mon Mar 19, 2012 2:13 pm

i deleted the database folder and also reset the cache, same behavior the buffer is full and i have a gigabit network (512mb speed to ps3) as soon as i go back to sb25 it works fine again. i even tried unticking enable cache same behavior. i tried a/v sync on and off i tried exiting and restarting and the sync is bad again. anything else i can try it just happens on some mkv's and i dont use tsmuxer. heres abit of the trace for the file..

Code: Select all
[New I/O server worker #1-1] INFO  2012-03-20 00:07:13.436 Starting transcode/remux of file.mkv
[New I/O server worker #1-1] DEBUG 2012-03-20 00:07:13.467 Starting "C:\Program Files (x86)\PS3 Media Server\win32\ffmpeg.exe" -i "F:\Files 2\file.mkv" -vframes 1 -vcodec copy -f h264 -vbsf h264_mp4toannexb -an -y pipe:
[New I/O server worker #1-1] DEBUG 2012-03-20 00:07:13.483 Attaching thread: ffmpeg.exe-2
[Thread-21] DEBUG 2012-03-20 00:07:13.545 ffmpeg version N-35509-gfd36cbf-Sherpya, Copyright (c) 2000-2011 the FFmpeg developers
[Thread-21] DEBUG 2012-03-20 00:07:13.545   built on Dec  7 2011 06:17:11 with gcc 4.6.2
[Thread-21] DEBUG 2012-03-20 00:07:13.545   libavutil    51. 30. 0 / 51. 30. 0
[Thread-21] DEBUG 2012-03-20 00:07:13.545   libavcodec   53. 41. 0 / 53. 41. 0
[Thread-21] DEBUG 2012-03-20 00:07:13.545   libavformat  53. 24. 0 / 53. 24. 0
[Thread-21] DEBUG 2012-03-20 00:07:13.545   libavdevice  53.  4. 0 / 53.  4. 0
[Thread-21] DEBUG 2012-03-20 00:07:13.545   libavfilter   2. 51. 0 /  2. 51. 0
[Thread-21] DEBUG 2012-03-20 00:07:13.545   libswscale    2.  1. 0 /  2.  1. 0
[Thread-21] DEBUG 2012-03-20 00:07:13.545   libpostproc  51.  2. 0 / 51.  2. 0
[Thread-21] DEBUG 2012-03-20 00:07:13.545 Input #0, matroska,webm, from 'F:\Files 2\file.mkv':
[Thread-21] DEBUG 2012-03-20 00:07:13.545   Duration: 00:41:15.04, start: 0.000000, bitrate: 5053 kb/s
[Thread-21] DEBUG 2012-03-20 00:07:13.545     Chapter #0.0: start 0.000000, end 75.680000
[Thread-21] DEBUG 2012-03-20 00:07:13.545     Metadata:
[Thread-21] DEBUG 2012-03-20 00:07:13.545       title           : 00:00:00.000
[Thread-21] DEBUG 2012-03-20 00:07:13.545     Chapter #0.1: start 75.680000, end 649.000000
[Thread-21] DEBUG 2012-03-20 00:07:13.545     Metadata:
[Thread-21] DEBUG 2012-03-20 00:07:13.545       title           : 00:01:15.680
[Thread-21] DEBUG 2012-03-20 00:07:13.545     Chapter #0.2: start 649.000000, end 1172.000000
[Thread-21] DEBUG 2012-03-20 00:07:13.545     Metadata:
[Thread-21] DEBUG 2012-03-20 00:07:13.545       title           : 00:10:49.000
[Thread-21] DEBUG 2012-03-20 00:07:13.545     Chapter #0.3: start 1172.000000, end 1604.440000
[Thread-21] DEBUG 2012-03-20 00:07:13.545     Metadata:
[Thread-21] DEBUG 2012-03-20 00:07:13.545       title           : 00:19:32.000
[Thread-21] DEBUG 2012-03-20 00:07:13.561     Chapter #0.4: start 1604.440000, end 2135.000000
[Thread-21] DEBUG 2012-03-20 00:07:13.561     Metadata:
[Thread-21] DEBUG 2012-03-20 00:07:13.561       title           : 00:26:44.440
[Thread-21] DEBUG 2012-03-20 00:07:13.561     Chapter #0.5: start 2135.000000, end 2475.040000
[Thread-21] DEBUG 2012-03-20 00:07:13.561     Metadata:
[Thread-21] DEBUG 2012-03-20 00:07:13.561       title           : 00:35:35.000
[Thread-21] DEBUG 2012-03-20 00:07:13.561     Stream #0:0(eng): Video: h264 (High), yuv420p, 1280x720, SAR 1:1 DAR 16:9, 25 fps, 25 tbr, 1k tbn, 50 tbc (default)
[Thread-21] DEBUG 2012-03-20 00:07:13.561     Stream #0:1: Audio: ac3, 48000 Hz, stereo, s16, 224 kb/s (default)
[Thread-21] DEBUG 2012-03-20 00:07:13.561 Output #0, h264, to 'pipe:':
[Thread-21] DEBUG 2012-03-20 00:07:13.561   Metadata:
[Thread-21] DEBUG 2012-03-20 00:07:13.561     encoder         : Lavf53.24.0
[Thread-21] DEBUG 2012-03-20 00:07:13.561     Chapter #0.0: start 0.000000, end 75.680000
[Thread-21] DEBUG 2012-03-20 00:07:13.561     Metadata:
[Thread-21] DEBUG 2012-03-20 00:07:13.561       title           : 00:00:00.000
[Thread-21] DEBUG 2012-03-20 00:07:13.561     Chapter #0.1: start 75.680000, end 649.000000
[Thread-21] DEBUG 2012-03-20 00:07:13.561     Metadata:
[Thread-21] DEBUG 2012-03-20 00:07:13.561       title           : 00:01:15.680
[Thread-21] DEBUG 2012-03-20 00:07:13.561     Chapter #0.2: start 649.000000, end 1172.000000
[Thread-21] DEBUG 2012-03-20 00:07:13.561     Metadata:
[Thread-21] DEBUG 2012-03-20 00:07:13.561       title           : 00:10:49.000
[Thread-21] DEBUG 2012-03-20 00:07:13.561     Chapter #0.3: start 1172.000000, end 1604.440000
[Thread-21] DEBUG 2012-03-20 00:07:13.561     Metadata:
[Thread-21] DEBUG 2012-03-20 00:07:13.561       title           : 00:19:32.000
[Thread-21] DEBUG 2012-03-20 00:07:13.561     Chapter #0.4: start 1604.440000, end 2135.000000
[Thread-21] DEBUG 2012-03-20 00:07:13.561     Metadata:
[Thread-21] DEBUG 2012-03-20 00:07:13.561       title           : 00:26:44.440
[Thread-21] DEBUG 2012-03-20 00:07:13.561     Chapter #0.5: start 2135.000000, end 2475.040000
[Thread-21] DEBUG 2012-03-20 00:07:13.561     Metadata:
[Thread-21] DEBUG 2012-03-20 00:07:13.561       title           : 00:35:35.000
[Thread-21] DEBUG 2012-03-20 00:07:13.561     Stream #0:0(eng): Video: h264, yuv420p, 1280x720 [SAR 1:1 DAR 16:9], q=2-31, 25 fps, 90k tbn, 25 tbc (default)
[Thread-21] DEBUG 2012-03-20 00:07:13.561 Stream mapping:
[Thread-21] DEBUG 2012-03-20 00:07:13.561   Stream #0:0 -> #0:0 (copy)
[Thread-21] DEBUG 2012-03-20 00:07:13.561 Press [q] to stop, [?] for help
[Thread-21] DEBUG 2012-03-20 00:07:13.561 frame=    1 fps=  0 q=-1.0 Lsize=       1kB time=00:00:00.-4 bitrate=-192.8kbits/s   
[Thread-21] DEBUG 2012-03-20 00:07:13.561
[Thread-21] DEBUG 2012-03-20 00:07:13.561 video:1kB audio:0kB global headers:0kB muxing overhead 3.991370%
[New I/O server worker #1-1] DEBUG 2012-03-20 00:07:13.623 Creating pipe \\.\pipe\mencoder1332162433623
[Thread-24] DEBUG 2012-03-20 00:07:13.763 Waiting for pipe connection \\.\pipe\mencoder1332162433623
[mencoder.exe-3] DEBUG 2012-03-20 00:07:13.826 Starting "C:\Program Files (x86)\PS3 Media Server\win32\mencoder.exe" -ss 0 -quiet "F:\Files 2\file.mkv" -quiet -quiet -oac copy -of mpeg -quiet -quiet -mpegopts format=mpeg2:muxrate=500000:vbuf_size=1194:abuf_size=64 -ovc lavc -channels 2 -lavdopts debug=0:threads=2 -lavcopts autoaspect=1:vcodec=mpeg2video:acodec=ac3:abitrate=448:threads=2:keyint=1:vqscale=1:vqmin=1:vrc_maxrate=49000:vrc_buf_size=1835 -quiet -quiet -subdelay 20000 -quiet -quiet -ofps 25 -quiet -quiet -lavdopts fast -af lavcresample=48000 -srate 48000 -o \\.\pipe\mencoder1332162433623
[mencoder.exe-3] DEBUG 2012-03-20 00:07:13.841 Reading pipe: \\.\pipe\mencoder1332162433623
[mencoder.exe-3] DEBUG 2012-03-20 00:07:13.841 Attaching thread: mencoder.exe-3
[Thread-28] DEBUG 2012-03-20 00:07:13.873 MEncoder SB28 (C) 2000-2012 MPlayer Team
[Thread-28] DEBUG 2012-03-20 00:07:13.873 Custom build by SubJunk, http://www.spirton.com
[Thread-28] DEBUG 2012-03-20 00:07:13.873
[Thread-28] DEBUG 2012-03-20 00:07:13.873 success: format: 0  data: 0x0 - 0x5d310ca6
[Thread-28] DEBUG 2012-03-20 00:07:13.873 libavformat version 54.2.100 (internal)
[Thread-28] DEBUG 2012-03-20 00:07:13.888 libavformat file format detected.
[Thread-28] DEBUG 2012-03-20 00:07:13.925 [lavf] stream 0: video (h264), -vid 0
[Thread-28] DEBUG 2012-03-20 00:07:13.926 [lavf] stream 1: audio (ac3), -aid 0
[Thread-28] DEBUG 2012-03-20 00:07:13.926 VIDEO:  [H264]  1280x720  0bpp  25.000 fps    0.0 kbps ( 0.0 kbyte/s)
[Thread-28] DEBUG 2012-03-20 00:07:13.926 [V] filefmt:44  fourcc:0x34363248  size:1280x720  fps:25.000  ftime:=0.0400
[Thread-24] DEBUG 2012-03-20 00:07:13.926 Result of \\.\pipe\mencoder1332162433623 : true
[Thread-28] DEBUG 2012-03-20 00:07:13.930 PACKET SIZE: 2048 bytes, deltascr: 884
[Thread-28] DEBUG 2012-03-20 00:07:13.931 libavcodec version 54.10.100 (internal)
[StartPlaying Event] INFO  2012-03-20 00:07:13.931 renderer: 192.168.1.3, file: F:\Files 2\file.mkv
[Thread-28] DEBUG 2012-03-20 00:07:13.932 Opening video filter: [expand osd=1]
[Thread-28] DEBUG 2012-03-20 00:07:13.939 Expand: -1 x -1, -1 ; -1, osd: 1, aspect: 0.000000, round: 1
[Thread-28] DEBUG 2012-03-20 00:07:13.939 ==========================================================================
[Thread-28] DEBUG 2012-03-20 00:07:13.939 Opening video decoder: [ffmpeg] FFmpeg's libavcodec codec family
[Thread-28] DEBUG 2012-03-20 00:07:13.939 Selected video codec: [ffh264] vfm: ffmpeg (FFmpeg H.264)
[Thread-28] DEBUG 2012-03-20 00:07:13.939 ==========================================================================
[Thread-28] DEBUG 2012-03-20 00:07:13.939 audiocodec: framecopy (format=2000 chans=2 rate=48000 bits=0 B/s=28000 sample-0)
[Thread-27] DEBUG 2012-03-20 00:07:13.941 Limiting audio preload to 0.4s.
[Thread-27] DEBUG 2012-03-20 00:07:13.941 Increasing audio density to 4.
[Thread-28] DEBUG 2012-03-20 00:07:14.122 Maybe you are playing a non-interleaved stream/file or the codec failed?
[Thread-27] DEBUG 2012-03-20 00:07:14.122
[Thread-28] DEBUG 2012-03-20 00:07:14.122 For AVI files, try to force non-interleaved mode with the -ni option.
[Thread-27] DEBUG 2012-03-20 00:07:14.122 Too many video packets in the buffer: (1590 in 33569998 bytes).
[Thread-27] DEBUG 2012-03-20 00:07:14.122 Unsupported PixelFormat 61
[Thread-27] DEBUG 2012-03-20 00:07:14.122 Unsupported PixelFormat 53
[Thread-27] DEBUG 2012-03-20 00:07:14.122 Unsupported PixelFormat 81
[Thread-27] DEBUG 2012-03-20 00:07:14.132 Muxer frame buffer cannot allocate memory!
[Thread-28] DEBUG 2012-03-20 00:07:14.134 Movie-Aspect is 1.78:1 - prescaling to correct movie aspect.
[Thread-28] DEBUG 2012-03-20 00:07:14.135 videocodec: libavcodec (1280x720 fourcc=3267706d [mpg2])
[Thread-28] DEBUG 2012-03-20 00:07:14.135 [VE_LAVC] Using constant qscale = 1.000000 (VBR).
[Thread-27] DEBUG 2012-03-20 00:07:14.167 Muxer frame buffer cannot allocate memory!
[Thread-28] DEBUG 2012-03-20 00:07:14.177 Writing header...
[Thread-28] DEBUG 2012-03-20 00:07:14.179 INITV: 0.200, 0.160, fps: 25.000
[Thread-28] DEBUG 2012-03-20 00:07:14.179
[Buffered IO End Checker] DEBUG 2012-03-20 00:07:16.061 Stopping process: ffmpeg.exe-2
[UPNP-AliveMessageSender] DEBUG 2012-03-20 00:07:27.819 Sending ALIVE...
[New I/O server worker #1-1] DEBUG 2012-03-20 00:07:43.454 Setting margin to 2Mb
[Thread-27] DEBUG 2012-03-20 00:07:50.859
[Thread-27] DEBUG 2012-03-20 00:07:50.859 Too many video packets in the buffer: (1052 in 33572624 bytes).
[Thread-28] DEBUG 2012-03-20 00:07:50.859 Maybe you are playing a non-interleaved stream/file or the codec failed?
[Thread-28] DEBUG 2012-03-20 00:07:50.859 For AVI files, try to force non-interleaved mode with the -ni option.
[Thread-27] DEBUG 2012-03-20 00:08:22.422
[Thread-27] DEBUG 2012-03-20 00:08:22.422 Too many video packets in the buffer: (1819 in 33595837 bytes).
[Thread-28] DEBUG 2012-03-20 00:08:22.422 Maybe you are playing a non-interleaved stream/file or the codec failed?
[Thread-28] DEBUG 2012-03-20 00:08:22.422 For AVI files, try to force non-interleaved mode with the -ni option.
[Thread-27] DEBUG 2012-03-20 00:09:01.872
[Thread-27] DEBUG 2012-03-20 00:09:01.872 Too many video packets in the buffer: (1349 in 33606643 bytes).
[Thread-28] DEBUG 2012-03-20 00:09:01.873 Maybe you are playing a non-interleaved stream/file or the codec failed?
[Thread-28] DEBUG 2012-03-20 00:09:01.873 For AVI files, try to force non-interleaved mode with the -ni option.
[Thread-27] DEBUG 2012-03-20 00:09:44.675
[Thread-27] DEBUG 2012-03-20 00:09:44.675 Too many video packets in the buffer: (1232 in 33555351 bytes).
[Thread-28] DEBUG 2012-03-20 00:09:44.675 Maybe you are playing a non-interleaved stream/file or the codec failed?
[Thread-28] DEBUG 2012-03-20 00:09:44.675 For AVI files, try to force non-interleaved mode with the -ni option.
[Thread-27] DEBUG 2012-03-20 00:10:29.764
[Thread-27] DEBUG 2012-03-20 00:10:29.764 Too many video packets in the buffer: (1265 in 33607133 bytes).
[Thread-28] DEBUG 2012-03-20 00:10:29.764 Maybe you are playing a non-interleaved stream/file or the codec failed?
[Thread-28] DEBUG 2012-03-20 00:10:29.764 For AVI files, try to force non-interleaved mode with the -ni option.


Code: Select all
General
Unique ID                                : 200170772084079236458134201558544381095 (0x96977D0770C927A9AD23584BC4BF74A7)
Complete name                            : F:\Files 2\file.mkv
Format                                   : Matroska
Format version                           : Version 2
File size                                : 1.46 GiB
Duration                                 : 41mn 15s
Overall bit rate                         : 5 054 Kbps
Encoded date                             : UTC 2011-10-04 18:45:24
Writing application                      : mkvmerge v5.0.0 ('Die Wahre Liebe') built on Sep 25 2011 20:33:49
Writing library                          : libebml v1.2.2 + libmatroska v1.3.0

Video
ID                                       : 1
Format                                   : AVC
Format/Info                              : Advanced Video Codec
Format profile                           : High@L4.1
Format settings, CABAC                   : Yes
Format settings, ReFrames                : 5 frames
Codec ID                                 : V_MPEG4/ISO/AVC
Duration                                 : 41mn 15s
Bit rate                                 : 4 828 Kbps
Width                                    : 1 280 pixels
Height                                   : 720 pixels
Display aspect ratio                     : 16:9
Frame rate                               : 25.000 fps
Color space                              : YUV
Chroma subsampling                       : 4:2:0
Bit depth                                : 8 bits
Scan type                                : Progressive
Bits/(Pixel*Frame)                       : 0.210
Stream size                              : 1.36 GiB (94%)
Writing library                          : x264 core 118 r2085 8a62835
Encoding settings                        : cabac=1 / ref=5 / deblock=1:0:0 / analyse=0x3:0x113 / me=umh / subme=8 / psy=1 / psy_rd=1.00:0.00 / mixed_ref=1 / me_range=16 / chroma_me=1 / trellis=1 / 8x8dct=1 / cqm=0 / deadzone=21,11 / fast_pskip=1 / chroma_qp_offset=-2 / threads=6 / sliced_threads=0 / nr=0 / decimate=1 / interlaced=0 / bluray_compat=0 / constrained_intra=0 / bframes=3 / b_pyramid=2 / b_adapt=2 / b_bias=0 / direct=3 / weightb=1 / open_gop=0 / weightp=2 / keyint=250 / keyint_min=25 / scenecut=40 / intra_refresh=0 / rc_lookahead=50 / rc=2pass / mbtree=1 / bitrate=4828 / ratetol=1.0 / qcomp=0.60 / qpmin=0 / qpmax=69 / qpstep=4 / cplxblur=20.0 / qblur=0.5 / ip_ratio=1.40 / aq=1:1.00
Language                                 : English
Default                                  : Yes
Forced                                   : No

Audio
ID                                       : 2
Format                                   : AC-3
Format/Info                              : Audio Coding 3
Mode extension                           : CM (complete main)
Codec ID                                 : A_AC3
Duration                                 : 41mn 15s
Bit rate mode                            : Constant
Bit rate                                 : 224 Kbps
Channel(s)                               : 2 channels
Channel positions                        : Front: L R
Sampling rate                            : 48.0 KHz
Bit depth                                : 16 bits
Compression mode                         : Lossy
Stream size                              : 66.1 MiB (4%)
Default                                  : Yes
Forced                                   : No

Menu
00:00:00.000                             : en:00:00:00.000
00:01:15.680                             : en:00:01:15.680
00:10:49.000                             : en:00:10:49.000
00:19:32.000                             : en:00:19:32.000
00:26:44.440                             : en:00:26:44.440
00:35:35.000                             : en:00:35:35.000
mazey
 
Posts: 772
Joined: Sat Oct 24, 2009 9:07 am

Re: PMS SubJunk Build 68 (Updated 2012-03-15)

Postby SubJunk » Mon Mar 19, 2012 11:28 pm

Sorry I should have specified that I meant the mplayer cache.
Should be at C:\Users\Username\AppData\Local\MPlayer

I remember seeing someone post that it had worked for them. If it works for you I'll look at deleting it on install.
SubJunk
 
Posts: 1210
Joined: Fri Mar 27, 2009 5:25 am

PreviousNext

Return to Beta Builds

Who is online

Users browsing this forum: No registered users and 2 guests