PMS SubJunk Build

Download and discuss official beta builds here

Re: PMS SubJunk Build 66 (Updated 2012-02-15)

Postby Madoka » Sat Mar 03, 2012 3:32 am

Recently, since maybe SB60, I've had to turn alternate sync back on (checked) or my subtitles get completely desynced. Well, the subs are synced with the audio and both are out of sync with the video.
Madoka
 
Posts: 111
Joined: Fri Feb 19, 2010 3:02 am

Re: PMS SubJunk Build 67 (Updated 2012-03-07)

Postby SubJunk » Wed Mar 07, 2012 6:18 am

SB67 is released
SubJunk
 
Posts: 1210
Joined: Fri Mar 27, 2009 5:25 am

Re: PMS SubJunk Build 67 (Updated 2012-03-07)

Postby TCr82 » Wed Mar 07, 2012 10:10 am

The Linux Build has a bug in Build 66 and 67. The PMS.sh has Windows linebreaks and needs every time to converted first to linux linebreaks.
TCr82
 
Posts: 3
Joined: Sat Feb 25, 2012 12:58 pm

Re: PMS SubJunk Build 67 (Updated 2012-03-07)

Postby arix » Sat Mar 10, 2012 12:41 am

SB67 fixed also some subtitles issue, great work SubJunk ! and thanks to other developers !
arix
 
Posts: 23
Joined: Wed May 25, 2011 12:52 pm

Re: PMS SubJunk Build 67 (Updated 2012-03-07)

Postby Coltaine79 » Tue Mar 13, 2012 4:51 am

SB67 working well for me too.
Coltaine79
 
Posts: 175
Joined: Wed Aug 25, 2010 9:00 pm

Re: PMS SubJunk Build 67 (Updated 2012-03-07)

Postby mookieguy » Tue Mar 13, 2012 2:50 pm

I'm having issues playing mkv files with tsmuxer with 67. going back to 66 works fine.
mookieguy
 
Posts: 6
Joined: Tue Aug 02, 2011 2:25 pm

Re: PMS SubJunk Build 67 (Updated 2012-03-07)

Postby gguruusa » Thu Mar 15, 2012 12:07 am

I have a chinese DVD with English subtitles that will not show. I tried with SB66 and SB67, without joy. Playing Video1_1.vob with vlc shows subtitles. The interesting thing is that the subtitle track isn't selectable in VLC until after the opening credits - as if there isn't a subtitle track at all until then. All other subtitled dvds I have work, but none of them have this "no subtitle track until many seconds into movie" issue. Any ideas? The output of SB66 & SB67 causes Showtime to freeze as soon as the subtitle track is supposed start....so something is making it into the stream. Using the stock PS3 video player as client with SB66 & SB67 doesn't freeze, but no subtitles.

On an couple of unrelated notes, I have a couple of DVDs with multiple UNK audio and/or UNK subtitle tracks. I can pick which UNK stream to play using #transcode and mux all streams, but it would be nice if the stream # and/or region was visible somehow. Also, if I want to only stream the left stream of a 3D movie (so I can watch via 2D projector), is there some way to do so?
gguruusa
 
Posts: 11
Joined: Sun Mar 20, 2011 6:11 pm

Re: PMS SubJunk Build 68 (Updated 2012-03-15)

Postby SubJunk » Thu Mar 15, 2012 10:32 am

SB68 is released
SubJunk
 
Posts: 1210
Joined: Fri Mar 27, 2009 5:25 am

Re: PMS SubJunk Build 68 (Updated 2012-03-15)

Postby mookieguy » Thu Mar 15, 2012 3:40 pm

Thanks SJ! Will test tonight to see if this fixes the tsmuxer issues I've been having.
mookieguy
 
Posts: 6
Joined: Tue Aug 02, 2011 2:25 pm

Re: PMS SubJunk Build 68 (Updated 2012-03-15)

Postby mkvguy » Sun Mar 18, 2012 10:58 pm

I have an A/V sync issue with a specific file. I can play this file with mplayer and the A/V are perfectly in sync, but when played via PMS on my PS3, the audio is ahead by half a second.

Since other files play fine via PMS/PS3, what is wrong with this particular file? It definitely plays fine under mplayer, so what breaks it under PMS/PS3?

Can anyone shed some light please?

Code: Select all
Format                           : Matroska
File size                        : 1.40 GiB
Duration                         : 43mn 59s
Overall bit rate                 : 4 549 Kbps
Encoded date                     : UTC 2012-02-22 04:13:53
Writing application              : mkvmerge v2.7.0 ('Do It Again') built on Jul  2 2010 15:54:17
Writing library                  : libebml v0.7.7 + libmatroska v0.8.1

Video
ID                               : 1
Format                           : AVC
Format/Info                      : Advanced Video Codec
Format profile                   : High@L4.1
Format settings, CABAC           : Yes
Format settings, ReFrames        : 5 frames
Codec ID                         : V_MPEG4/ISO/AVC
Duration                         : 43mn 59s
Bit rate                         : 4 074 Kbps
Width                            : 1 276 pixels
Height                           : 720 pixels
Display aspect ratio             : 16:9
Frame rate                       : 29.970 fps
Color space                      : YUV
Chroma subsampling               : 4:2:0
Bit depth                        : 8 bits
Scan type                        : Progressive
Bits/(Pixel*Frame)               : 0.148
Stream size                      : 1.25 GiB (90%)
Writing library                  : x264 core 120 r2164 da19765
Encoding settings                : cabac=1 / ref=5 / deblock=1:0:0 / analyse=0x3:0x113 / me=umh / subme=8 / psy=1 / psy_rd=1.00:0.00 / mixed_ref=1 / me_range=16 / chroma_me=1 / trellis=1 / 8x8dct=1 / cqm=0 / deadzone=21,11 / fast_pskip=1 / chroma_qp_offset=-2 / threads=16 / sliced_threads=0 / nr=0 / decimate=1 / interlaced=0 / bluray_compat=0 / constrained_intra=0 / bframes=3 / b_pyramid=2 / b_adapt=2 / b_bias=0 / direct=3 / weightb=1 / open_gop=0 / weightp=2 / keyint=300 / keyint_min=30 / scenecut=40 / intra_refresh=0 / rc_lookahead=50 / rc=crf / mbtree=1 / crf=20.0 / qcomp=0.60 / qpmin=0 / qpmax=69 / qpstep=4 / ip_ratio=1.40 / aq=1:1.00
Language                         : English
Matrix coefficients              : BT.709-5, BT.1361, IEC 61966-2-4 709, SMPTE RP177

Audio
ID                               : 2
Format                           : AC-3
Format/Info                      : Audio Coding 3
Mode extension                   : CM (complete main)
Codec ID                         : A_AC3
Duration                         : 43mn 59s
Bit rate mode                    : Constant
Bit rate                         : 384 Kbps
Channel(s)                       : 6 channels
Channel positions                : Front: L C R, Side: L R, LFE
Sampling rate                    : 48.0 KHz
Bit depth                        : 16 bits
Stream size                      : 121 MiB (8%)
* PMS 1.51.0-SB68
* Fedora Linux 64bit
* mplayer/mencoder SVN-r33254
* Sony Bravia KDL-40W2000
* Playstation 3
* Java 1.6.0.0-50.1.8.7
mkvguy
 
Posts: 46
Joined: Mon Mar 22, 2010 6:36 pm

PreviousNext

Return to Beta Builds

Who is online

Users browsing this forum: Bing [Bot] and 4 guests