PS3 tsMuxeR problem Ubuntu 11.10 happy-neko PPA

For help and support with issues specific to Linux/Unix
Forum rules
Please make sure you follow the Problem Reporting Guidelines before posting if you want a reply.

PS3 tsMuxeR problem Ubuntu 11.10 happy-neko PPA

Postby loz » Wed Mar 14, 2012 3:27 pm

I have installed PS3 Media Server 1.50.2+svn1092+mplayer34587-4 using the happy-neko PPA. This certainly makes life much easier than the manual install.

However, tsMuxeR seems to be broken. Getting the data is corrupted message on the PS3.

1- Computer and PMS specs
    pms: PS3 Media Server 1.50.2+svn1092+mplayer34587-4 installed from the happy-neko PPA
    cpu: Intel(R) Core(TM) i5-2400 CPU @ 3.10GHz, 3100 MHz
    memory: 4GB
    o/s: Ubuntu 11.10 oneiric amd64 3.0.0-16-generic

2- Device
    PS3
    WD TV Live

3-Network setup
    Direct wired gigE connection through gigE switch to both devices

4- Which engine you are using if you're transcoding (MEncoder, AviSynth/MEncoder, TSmuxer)
    defaults

5- What is not working
    First movie produces "data is corrupted" message on PS3. Second movie plays audio for 10-15 secs with no video - screen stays blank
    Both movies play fine on the WD TV Live.

6 - Logs
Traces tab
Code: Select all
[main] INFO  00:50:48.469 Starting PS3 Media Server 1.50.2+svn1092+mplayer34587-4
[main] INFO  00:50:48.469 by shagrath / 2008-2012
[main] INFO  00:50:48.469 http://ps3mediaserver.org
[main] INFO  00:50:48.470 http://code.google.com/p/ps3mediaserver
[main] INFO  00:50:48.470 http://ps3mediaserver.blogspot.com
[main] INFO  00:50:48.470
[main] INFO  00:50:48.470 Java: 1.6.0_23-Sun Microsystems Inc.
[main] INFO  00:50:48.470 OS: Linux amd64 3.0.0-16-generic
[main] INFO  00:50:48.470 Encoding: UTF-8
[main] INFO  00:50:48.471 Working directory: /usr/lib/ps3mediaserver
[main] INFO  00:50:48.533 Temp folder: /tmp/ps3mediaserver-loz
[main] INFO  00:50:48.534 Logging config file: /etc/ps3mediaserver/logback.xml
[main] INFO  00:50:48.535 debug.log: /var/log/ps3mediaserver/loz//debug.log
[main] INFO  00:50:48.535
[main] INFO  00:50:48.535 Profile directory: /home/loz/.config/ps3mediaserver
[main] INFO  00:50:48.536 Profile path: /home/loz/.config/ps3mediaserver/PMS.conf
[main] INFO  00:50:48.536 Profile status: rw
[main] INFO  00:50:48.536 Profile name: data
[main] INFO  00:50:48.537
[main] INFO  00:50:48.912 Loading MediaInfo library
[main] INFO  00:50:49.089 Loaded MediaInfoLib - v0.7.50
[main] INFO  00:50:49.124 Loading renderer configurations from /etc/ps3mediaserver/renderers
[main] INFO  00:50:49.125 Loading configuration file: XBMC.conf
[main] INFO  00:50:49.126 Loading configuration file: N900.conf
[main] INFO  00:50:49.128 Loading configuration file: iPad-iPhone.conf
[main] INFO  00:50:49.142 Loading configuration file: BraviaEX.conf
[main] INFO  00:50:49.195 Loading configuration file: FreeboxHD.conf
[main] INFO  00:50:49.196 Loading configuration file: Android.conf
[main] INFO  00:50:49.220 Loading configuration file: SonyBluray.conf
[main] INFO  00:50:49.224 Loading configuration file: SamsungAllShare.conf
[main] INFO  00:50:49.225 Loading configuration file: AirPlayer.conf
[main] INFO  00:50:49.228 Loading configuration file: Bravia5500.conf
[main] INFO  00:50:49.229 Loading configuration file: PS3.conf
[main] INFO  00:50:49.233 Loading configuration file: SamsungWiseLink.conf
[main] INFO  00:50:49.234 Loading configuration file: WMP.conf
[main] INFO  00:50:49.236 Loading configuration file: Kuro.conf
[main] INFO  00:50:49.277 Loading configuration file: FreecomMusicPal.conf
[main] INFO  00:50:49.285 Loading configuration file: XBOX360.conf
[main] INFO  00:50:49.286 Loading configuration file: Streamium.conf
[main] INFO  00:50:49.287 Loading configuration file: Showtime3.conf
[main] INFO  00:50:49.289 Loading configuration file: Realtek.conf
[main] INFO  00:50:49.291 Loading configuration file: Panasonic.conf
[main] INFO  00:50:49.293 Loading configuration file: Bravia4500.conf
[main] INFO  00:50:49.342 Loading configuration file: Philips.conf
[main] INFO  00:50:49.343 Loading configuration file: PopcornHour.conf
[main] INFO  00:50:49.344 Loading configuration file: PhilipsPFL.conf
[main] INFO  00:50:49.346 Loading configuration file: WDTVLive.conf
[main] INFO  00:50:49.347 Checking MPlayer font cache. It can take a minute or so.
[main] INFO  00:50:49.683 Done!
[main] INFO  00:50:49.795 Searching for plugins in /usr/lib/ps3mediaserver/plugins
[main] INFO  00:50:49.796 No plugins found
[main] INFO  00:50:49.799 Registering transcoding engine: FFmpeg Audio
[main] INFO  00:50:49.803 Registering transcoding engine: MEncoder
[main] INFO  00:50:49.804 Registering transcoding engine: MPlayer Audio
[main] INFO  00:50:49.804 Registering transcoding engine: MEncoder Web
[main] INFO  00:50:49.804 Registering transcoding engine: MPlayer Video Dump
[main] INFO  00:50:49.805 Registering transcoding engine: MPlayer Web
[main] INFO  00:50:49.806 Registering transcoding engine: tsMuxeR
[main] INFO  00:50:49.806 Registering transcoding engine: Audio High Fidelity
[main] INFO  00:50:49.807 Registering transcoding engine: VLC Audio Streaming
[main] INFO  00:50:49.807 Registering transcoding engine: VLC Video Streaming
[main] INFO  00:50:49.807 Registering transcoding engine: Raws Thumbnailer
[main] INFO  00:50:49.918 Using address /192.168.10.2 found on network interface: name:eth1 (eth1)
[main] INFO  00:50:49.918 Created socket: /192.168.10.2:5001
[main] INFO  00:50:50.090 Using database located at: /var/lib/ps3mediaserver/database-loz
[main] INFO  00:50:50.886 A tiny cache admin interface is available at: http://192.168.10.2:5001/console/home
[main] INFO  00:50:50.891 Checking shared folder: /media/share/videos/movies/family
[main] INFO  00:50:50.891 Checking shared folder: /media/share/videos/movies/parents
[main] INFO  00:50:50.891 Checking shared folder: /media/share/videos/personal
[main] INFO  00:50:50.891 Checking shared folder: /media/share/music
[main] INFO  00:50:50.892 Checking shared folder: /media/share/photos
[main] INFO  00:50:50.892 Checking shared folder: /media/share/music/Podcasts
[main] INFO  00:50:51.150 Using the following UUID configured in PMS.conf: b3aa9807-3625-3366-a8c5-806de042a6aa
[main] INFO  00:50:56.193 The server should now appear on your renderer
[AWT-EventQueue-0] INFO  00:52:24.644 Configuration saved to: /home/loz/.config/ps3mediaserver/PMS.conf
[background-task-0-restart(0)] INFO  00:52:28.910 Sending BYEBYE...
[background-task-0-restart(0)] INFO  00:52:32.830 Stopping server on host 192.168.10.2 and port 5001...
[background-task-0-restart(0)] INFO  00:52:33.837 found lo, without valid address
[background-task-0-restart(0)] INFO  00:52:33.837 Using address /192.168.10.2 found on network interface: name:eth1 (eth1)
[background-task-0-restart(0)] INFO  00:52:33.837 Created socket: /192.168.10.2:5001
[UPNPHelper] INFO  00:54:33.990 No IP filter specified, access granted to /192.168.10.12
[pool-6-thread-1] INFO  00:54:35.561 Checking ip:192.168.10.12 for Playstation 3
[New I/O server worker #2-4] INFO  00:54:35.786 Checking shared folder: /media/share/videos/movies/family
[New I/O server worker #2-4] INFO  00:54:35.786 Checking shared folder: /media/share/videos/movies/parents
[New I/O server worker #2-4] INFO  00:54:35.786 Checking shared folder: /media/share/videos/personal
[New I/O server worker #2-4] INFO  00:54:35.787 Checking shared folder: /media/share/music
[New I/O server worker #2-4] INFO  00:54:35.787 Checking shared folder: /media/share/photos
[New I/O server worker #2-4] INFO  00:54:35.787 Checking shared folder: /media/share/music/Podcasts
[New I/O server worker #2-4] INFO  00:54:35.790 Node(net.pms.dlna.virtual.MediaLibrary) already has an ID=0$8, which is overriden now. The previous paren6 - Logst node was:RootFolder[[MapFile [name=family, id=0$1, ext=null, children=[]], MapFile [name=parents, id=0$2, ext=null, children=[]], MapFile [name=personal, id=0$3, ext=null, children=[]], MapFile [name=music, id=0$4, ext=null, children=[]], MapFile [name=photos, id=0$5, ext=null, children=[]], MapFile [name=Podcasts, id=0$6, ext=null, children=[]], VirtualFolder [id=7, name=Web, full path=0$7, ext=null, discovered=false]]]
[pool-6-thread-1] INFO  00:54:40.939 Renderer Playstation 3 found on this address: 192.168.10.12
[New I/O server worker #2-2] INFO  00:55:47.492 Starting transcode/remux of A Cinderella Story.mpg
[tsMuxeR-3] INFO  00:55:49.596 Process /usr/lib/ps3mediaserver/linux/tsMuxeR has a return code of 254! Maybe an error occurred... check the log file
[New I/O server worker #2-6] INFO  00:55:58.588 Starting transcode/remux of A Bugs Life.m4v
[Process Destroyer] WARN  00:55:59.598 Sending kill -14 to the Unix process: 3996
[Process Destroyer] WARN  00:56:41.831 Sending kill -14 to the Unix process: 4055
[Process Destroyer] WARN  00:56:41.832 Sending kill -14 to the Unix process: 4072
[UPNPHelper] INFO  00:57:34.732 No IP filter specified, access granted to /192.168.10.60
[pool-6-thread-2] INFO  00:57:35.071 Checking ip:192.168.10.60 for WD TV Live
[pool-6-thread-2] INFO  00:57:35.352 Renderer WD TV Live found on this address: WDTVLIVE.local (192.168.10.60)
[pool-6-thread-2] INFO  00:57:37.356 Address /192.168.10.60 has an estimated network speed of: 73 Mb/s
[New I/O server worker #2-5] INFO  00:57:49.394 Checking shared folder: /media/share/videos/movies/family
[New I/O server worker #2-5] INFO  00:57:49.394 Checking shared folder: /media/share/videos/movies/parents
[New I/O server worker #2-5] INFO  00:57:49.395 Checking shared folder: /media/share/videos/personal
[New I/O server worker #2-5] INFO  00:57:49.395 Checking shared folder: /media/share/music
[New I/O server worker #2-5] INFO  00:57:49.395 Checking shared folder: /media/share/photos
[New I/O server worker #2-5] INFO  00:57:49.395 Checking shared folder: /media/share/music/Podcasts
[New I/O server worker #2-5] INFO  00:57:49.397 Node(net.pms.dlna.virtual.MediaLibrary) already has an ID=0$8, which is overriden now. The previous parent node was:RootFolder[[MapFile [name=family, id=0$1, ext=null, children=[]], MapFile [name=parents, id=0$2, ext=null, children=[]], MapFile [name=personal, id=0$3, ext=null, children=[]], MapFile [name=music, id=0$4, ext=null, children=[]], MapFile [name=photos, id=0$5, ext=null, children=[]], MapFile [name=Podcasts, id=0$6, ext=null, children=[]], VirtualFolder [id=7, name=Web, full path=0$7, ext=null, discovered=false]]]
[New I/O server worker #2-7] INFO  00:57:58.167 Starting transcode/remux of A Bugs Life.m4v
[New I/O server worker #2-1] INFO  00:59:07.468 Starting transcode/remux of A Bugs Life.m4v
[New I/O server worker #2-7] INFO  00:59:57.453 Starting transcode/remux of Aladdin.m4v
[mencoder-41] ERROR 00:59:58.152 Fatal error in process initialization:
java.io.FileNotFoundException: /tmp/ps3mediaserver-loz/mencoder1331733597925 (No such file or directory)
   at java.io.RandomAccessFile.open(Native Method) ~[na:1.6.0_23]
   at java.io.RandomAccessFile.<init>(RandomAccessFile.java:233) ~[na:1.6.0_23]
   at java.io.RandomAccessFile.<init>(RandomAccessFile.java:118) ~[na:1.6.0_23]
   at net.pms.io.PipeProcess.getInputStream(PipeProcess.java:128) ~[pms.jar:na]
   at net.pms.io.ProcessWrapperImpl.run(ProcessWrapperImpl.java:149) ~[pms.jar:na]
[New I/O server worker #2-8] INFO  00:59:59.450 Starting transcode/remux of Aladdin.m4v
[mencoder-43] ERROR 00:59:59.574 Fatal error in process initialization:
java.io.FileNotFoundException: /tmp/ps3mediaserver-loz/mencoder1331733599503 (No such file or directory)
   at java.io.RandomAccessFile.open(Native Method) ~[na:1.6.0_23]
   at java.io.RandomAccessFile.<init>(RandomAccessFile.java:233) ~[na:1.6.0_23]
   at java.io.RandomAccessFile.<init>(RandomAccessFile.java:118) ~[na:1.6.0_23]
   at net.pms.io.PipeProcess.getInputStream(PipeProcess.java:128) ~[pms.jar:na]
   at net.pms.io.ProcessWrapperImpl.run(ProcessWrapperImpl.java:149) ~[pms.jar:na]
[New I/O server worker #2-3] INFO  01:00:06.715 Starting transcode/remux of BandSlam.m4v
[mencoder-46] ERROR 01:00:07.120 Fatal error in process initialization:
java.io.FileNotFoundException: /tmp/ps3mediaserver-loz/mencoder1331733607046 (No such file or directory)
   at java.io.RandomAccessFile.open(Native Method) ~[na:1.6.0_23]
   at java.io.RandomAccessFile.<init>(RandomAccessFile.java:233) ~[na:1.6.0_23]
   at java.io.RandomAccessFile.<init>(RandomAccessFile.java:118) ~[na:1.6.0_23]
   at net.pms.io.PipeProcess.getInputStream(PipeProcess.java:128) ~[pms.jar:na]
   at net.pms.io.ProcessWrapperImpl.run(ProcessWrapperImpl.java:149) ~[pms.jar:na]
[New I/O server worker #2-4] INFO  01:00:07.714 Starting transcode/remux of BandSlam.m4v
[New I/O server worker #2-7] ERROR 01:00:09.077 There is no inputstream to return for Aladdin.m4v [MEncoder]
[Process Destroyer] WARN  01:00:09.233 Sending kill -14 to the Unix process: 4238
[New I/O server worker #2-8] ERROR 01:00:10.655 There is no inputstream to return for Aladdin.m4v [MEncoder]
[Process Destroyer] WARN  01:00:45.776 Sending kill -14 to the Unix process: 4366


debug.log
debug.log.zip
debug.log
(12.07 KiB) Downloaded 118 times


7- MediaInfo

Code: Select all
$ mediainfo "A Cinderella Story.mpg"

General
ID                                       : 1072 (0x430)
Complete name                            : A Cinderella Story.mpg
Format                                   : MPEG-TS
File size                                : 4.89 GiB
Duration                                 : 2h 16mn
Overall bit rate mode                    : Variable
Overall bit rate                         : 5 148 Kbps

Video
ID                                       : 517 (0x205)
Menu ID                                  : 1074 (0x432)
Format                                   : MPEG Video
Format version                           : Version 2
Format profile                           : Main@Main
Format settings, BVOP                    : Yes
Format settings, Matrix                  : Custom
Codec ID                                 : 2
Duration                                 : 2h 16mn
Bit rate mode                            : Variable
Bit rate                                 : 4 700 Kbps
Maximum bit rate                         : 15.0 Mbps
Width                                    : 704 pixels
Height                                   : 576 pixels
Display aspect ratio                     : 16:9
Frame rate                               : 25.000 fps
Standard                                 : PAL
Color space                              : YUV
Chroma subsampling                       : 4:2:0
Bit depth                                : 8 bits
Scan type                                : Interlaced
Scan order                               : Top Field First
Compression mode                         : Lossy
Bits/(Pixel*Frame)                       : 0.464
Stream size                              : 4.46 GiB (91%)

Audio
ID                                       : 700 (0x2BC)
Menu ID                                  : 1074 (0x432)
Format                                   : MPEG Audio
Format version                           : Version 1
Format profile                           : Layer 2
Codec ID                                 : 4
Duration                                 : 2h 16mn
Bit rate mode                            : Constant
Bit rate                                 : 192 Kbps
Maximum bit rate                         : 201 Kbps
Channel(s)                               : 2 channels
Sampling rate                            : 48.0 KHz
Compression mode                         : Lossy
Delay relative to video                  : -130ms
Stream size                              : 187 MiB (4%)
Language                                 : English

Text
ID                                       : 581 (0x245)-801
Menu ID                                  : 1074 (0x432)
Format                                   : Teletext Subtitle
Language                                 : English

Menu
ID                                       : 258 (0x102)
Menu ID                                  : 1074 (0x432)
List                                     : 517 (0x205) (MPEG Video) / 581 (0x245) () / 700 (0x2BC) (MPEG Audio, English)
Language                                 :  /  / English
Maximum bit rate                         : 5320000


Code: Select all
$ mediainfo "A Bugs Life.m4v"
General
Complete name                            : A Bugs Life.m4v
Format                                   : MPEG-4
Format profile                           : Base Media / Version 2
Codec ID                                 : mp42
File size                                : 1.15 GiB
Duration                                 : 1h 31mn
Overall bit rate mode                    : Variable
Overall bit rate                         : 1 801 Kbps
Encoded date                             : UTC 2011-12-19 14:55:09
Tagged date                              : UTC 2011-12-19 15:17:56
Writing application                      : HandBrake 0.9.5 2011010300

Video
ID                                       : 1
Format                                   : AVC
Format/Info                              : Advanced Video Codec
Format profile                           : Main@L3.0
Format settings, CABAC                   : Yes
Format settings, ReFrames                : 4 frames
Codec ID                                 : avc1
Codec ID/Info                            : Advanced Video Coding
Duration                                 : 1h 31mn
Bit rate mode                            : Variable
Bit rate                                 : 1 632 Kbps
Width                                    : 702 pixels
Height                                   : 432 pixels
Display aspect ratio                     : 2.35:1
Frame rate mode                          : Variable
Frame rate                               : 25.000 fps
Minimum frame rate                       : 8.333 fps
Maximum frame rate                       : 105.140 fps
Color space                              : YUV
Chroma subsampling                       : 4:2:0
Bit depth                                : 8 bits
Scan type                                : Progressive
Bits/(Pixel*Frame)                       : 0.215
Stream size                              : 1.04 GiB (91%)
Writing library                          : x264 core 112
Encoding settings                        : cabac=1 / ref=2 / deblock=1:0:0 / analyse=0x1:0x111 / me=hex / subme=6 / psy=1 / psy_rd=1.00:0.00 / mixed_ref=0 / me_range=16 / chroma_me=1 / trellis=0 / 8x8dct=0 / cqm=0 / deadzone=21,11 / fast_pskip=1 / chroma_qp_offset=-2 / threads=12 / sliced_threads=0 / nr=0 / decimate=1 / interlaced=0 / constrained_intra=0 / bframes=2 / b_pyramid=2 / b_adapt=1 / b_bias=0 / direct=1 / weightb=0 / open_gop=0 / weightp=2 / keyint=250 / keyint_min=25 / scenecut=40 / intra_refresh=0 / rc_lookahead=40 / rc=crf / mbtree=1 / crf=20.0 / qcomp=0.60 / qpmin=3 / qpmax=51 / qpstep=4 / ip_ratio=1.40 / aq=1:1.00
Encoded date                             : UTC 2011-12-19 14:55:09
Tagged date                              : UTC 2011-12-19 15:17:56
Color primaries                          : BT.601-6 525, BT.1358 525, BT.1700 NTSC, SMPTE 170M
Transfer characteristics                 : BT.709-5, BT.1361
Matrix coefficients                      : BT.601-6 525, BT.1358 525, BT.1700 NTSC, SMPTE 170M

Audio
ID                                       : 2
Format                                   : AAC
Format/Info                              : Advanced Audio Codec
Format profile                           : LC
Codec ID                                 : 40
Duration                                 : 1h 31mn
Bit rate mode                            : Variable
Bit rate                                 : 165 Kbps
Maximum bit rate                         : 224 Kbps
Channel(s)                               : 2 channels
Channel positions                        : Front: L R
Sampling rate                            : 48.0 KHz
Compression mode                         : Lossy
Stream size                              : 107 MiB (9%)
Language                                 : English
Encoded date                             : UTC 2011-12-19 14:55:09
Tagged date                              : UTC 2011-12-19 15:17:55

Text
ID                                       : 3
Format                                   : Apple text
Codec ID                                 : text
Duration                                 : 1h 31mn
Bit rate mode                            : Constant
Bit rate                                 : 1 bps
Stream size                              : 888 Bytes (0%)
Encoded date                             : UTC 2011-12-19 14:55:09
Tagged date                              : UTC 2011-12-19 15:17:56
Last edited by loz on Sat Mar 17, 2012 5:03 am, edited 1 time in total.
loz
 
Posts: 17
Joined: Wed Mar 14, 2012 1:51 pm

Re: PS3 tsMuxeR problem Ubuntu 11.10

Postby meskibob » Wed Mar 14, 2012 3:35 pm

To me it looks like a permissions issue (MEncoder isn't able to create the pipe in the tmp directory), but you should have a dev (or Linux person) confirm.
I provide NO application support via PM or email, so please post your question to the forum per the Forum Rules.
meskibob
Moderator
 
Posts: 4784
Joined: Mon Jan 19, 2009 4:11 pm

Re: PS3 tsMuxeR problem Ubuntu 11.10

Postby loz » Fri Mar 16, 2012 4:59 am

Hi thanks meskibob.

Permission look ok I think.

Code: Select all
$ ls -la /tmp/ps3mediaserver-loz
total 20
drwxr-xr-x  2 loz  dlm5  4096 Mar 15 18:18 .
drwxrwxrwt 15 root root 12288 Mar 16 14:44 ..
prwxrwxrwx  1 loz  dlm5     0 Mar 15 00:55 1331733347537ffmpegvideo
prwxrwxrwx  1 loz  dlm5     0 Mar 15 00:55 1331733347537videoout
prwxrwxrwx  1 loz  dlm5     0 Mar 15 00:55 1331733347538audioout
prwxrwxrwx  1 loz  dlm5     0 Mar 15 00:55 1331733347538ffmpegaudio01
prwxrwxrwx  1 loz  dlm5     0 Mar 15 00:55 1331733347571tsmuxerout.ts
prwxrwxrwx  1 loz  dlm5     0 Mar 15 00:56 1331733360347ffmpegvideo
prwxrwxrwx  1 loz  dlm5     0 Mar 15 01:29 1331733360347videoout
prwxrwxrwx  1 loz  dlm5     0 Mar 15 00:56 1331733360348audioout
prwxrwxrwx  1 loz  dlm5     0 Mar 15 00:56 1331733360348ffmpegaudio01
prwxrwxrwx  1 loz  dlm5     0 Mar 15 00:56 1331733360348tsmuxerout.ts
prwxrwxrwx  1 loz  dlm5     0 Mar 15 18:18 1331795895594ffmpegvideo
prwxrwxrwx  1 loz  dlm5     0 Mar 15 18:18 1331795895594videoout
prwxrwxrwx  1 loz  dlm5     0 Mar 15 18:18 1331795895595audioout
prwxrwxrwx  1 loz  dlm5     0 Mar 15 18:18 1331795895595ffmpegaudio01
prwxrwxrwx  1 loz  dlm5     0 Mar 15 18:18 1331795895595tsmuxerout.ts
prwxrwxrwx  1 loz  dlm5     0 Mar 15 18:18 1331795922347audioout
prwxrwxrwx  1 loz  dlm5     0 Mar 15 18:18 1331795922347ffmpegaudio01
prwxrwxrwx  1 loz  dlm5     0 Mar 15 18:18 1331795922347ffmpegvideo
prwxrwxrwx  1 loz  dlm5     0 Mar 15 18:18 1331795922347tsmuxerout.ts
prwxrwxrwx  1 loz  dlm5     0 Mar 15 18:18 1331795922347videoout
prwxrwxrwx  1 loz  dlm5     0 Mar 15 00:58 mencoder1331733478633
prwxrwxrwx  1 loz  dlm5     0 Mar 15 00:59 mencoder1331733547479
-rw-r--r--  1 loz  dlm5     0 Mar 15 00:59 mencoder1331733597925
prwxrwxrwx  1 loz  dlm5     0 Mar 15 01:00 mencoder1331733607725
-rw-r--r--  1 loz  dlm5   274 Mar 15 18:18 pms-tsmuxer.meta
loz
 
Posts: 17
Joined: Wed Mar 14, 2012 1:51 pm

Re: PS3 tsMuxeR problem Ubuntu 11.10

Postby loz » Fri Mar 16, 2012 5:06 am

I might add that I had a previous manual install of PMS that played these movies fine.

I removed this manual install and used the happy-neko PPA to install 1.50.x.
loz
 
Posts: 17
Joined: Wed Mar 14, 2012 1:51 pm

Re: PS3 tsMuxeR problem Ubuntu 11.10 happy-neko PPA

Postby Jose1701 » Sat Mar 17, 2012 5:24 pm

Perhaps I do have the same problem. tsmuxer isn't working anymore.
Jose1701
 
Posts: 24
Joined: Thu Nov 17, 2011 6:27 pm

Re: PS3 tsMuxeR problem Ubuntu 11.10 happy-neko PPA

Postby loz » Thu Mar 22, 2012 1:42 pm

Hi,

I just upgraded to the new PS3 Media Server 1.51.0-2 PPA posted by happy.neko at http://www.ps3mediaserver.org/forum/viewtopic.php?f=3&t=13046&start=70#p66731.

The result is no change for me.

I would really appreciate if someone could help. I'm stuck.

Find below the contents of the traces tab.

Code: Select all
[main] INFO  2012-03-22 23:06:53.749 Starting PS3 Media Server 1.51.0-2 (ppa:happy-neko)
[main] INFO  2012-03-22 23:06:53.750 by shagrath / 2008-2012
[main] INFO  2012-03-22 23:06:53.751 http://ps3mediaserver.org
[main] INFO  2012-03-22 23:06:53.751 https://github.com/ps3mediaserver/ps3mediaserver
[main] INFO  2012-03-22 23:06:53.751 http://ps3mediaserver.blogspot.com
[main] INFO  2012-03-22 23:06:53.752
[main] INFO  2012-03-22 23:06:53.752 Build: f1bc902f8 (Thu Mar 15 16:18:00 2012 +0800)
[main] INFO  2012-03-22 23:06:53.753 Java: 1.6.0_23-Sun Microsystems Inc.
[main] INFO  2012-03-22 23:06:53.754 OS: Linux amd64 3.0.0-16-generic
[main] INFO  2012-03-22 23:06:53.754 Encoding: UTF-8
[main] INFO  2012-03-22 23:06:53.755
[main] INFO  2012-03-22 23:06:53.755 Working directory: /usr/lib/ps3mediaserver
[main] INFO  2012-03-22 23:06:53.783 Temp folder: /tmp/ps3mediaserver-loz
[main] INFO  2012-03-22 23:06:53.784 Logging config file: /etc/ps3mediaserver/logback.xml
[main] INFO  2012-03-22 23:06:53.784 debug.log: /var/log/ps3mediaserver/loz//debug.log
[main] INFO  2012-03-22 23:06:53.785
[main] INFO  2012-03-22 23:06:53.785 Profile directory: /home/loz/.config/ps3mediaserver
[main] INFO  2012-03-22 23:06:53.785 Profile path: /home/loz/.config/ps3mediaserver/PMS.conf
[main] INFO  2012-03-22 23:06:53.786 Profile status: rw
[main] INFO  2012-03-22 23:06:53.786 Profile name: data
[main] INFO  2012-03-22 23:06:53.787
[main] INFO  2012-03-22 23:06:53.882 Loading MediaInfo library
[main] INFO  2012-03-22 23:06:53.930 Loaded MediaInfoLib - v0.7.54
[main] INFO  2012-03-22 23:06:53.948 Loading renderer configurations from /etc/ps3mediaserver/renderers
[main] INFO  2012-03-22 23:06:53.948 Loading configuration file: XBMC.conf
[main] INFO  2012-03-22 23:06:53.972 Loading configuration file: N900.conf
[main] INFO  2012-03-22 23:06:53.993 Loading configuration file: iPad-iPhone.conf
[main] INFO  2012-03-22 23:06:54.001 Loading configuration file: BraviaEX.conf
[main] INFO  2012-03-22 23:06:54.003 Loading configuration file: FreeboxHD.conf
[main] INFO  2012-03-22 23:06:54.005 Loading configuration file: Android.conf
[main] INFO  2012-03-22 23:06:54.006 Loading configuration file: SonyBluray.conf
[main] INFO  2012-03-22 23:06:54.008 Loading configuration file: SamsungAllShare.conf
[main] INFO  2012-03-22 23:06:54.009 Loading configuration file: AirPlayer.conf
[main] INFO  2012-03-22 23:06:54.012 Loading configuration file: Bravia5500.conf
[main] INFO  2012-03-22 23:06:54.013 Loading configuration file: PS3.conf
[main] INFO  2012-03-22 23:06:54.032 Loading configuration file: SamsungWiseLink.conf
[main] INFO  2012-03-22 23:06:54.033 Loading configuration file: WMP.conf
[main] INFO  2012-03-22 23:06:54.035 Loading configuration file: Kuro.conf
[main] INFO  2012-03-22 23:06:54.036 Loading configuration file: FreecomMusicPal.conf
[main] INFO  2012-03-22 23:06:54.038 Loading configuration file: XBOX360.conf
[main] INFO  2012-03-22 23:06:54.040 Loading configuration file: Streamium.conf
[main] INFO  2012-03-22 23:06:54.041 Loading configuration file: Showtime3.conf
[main] INFO  2012-03-22 23:06:54.043 Loading configuration file: Realtek.conf
[main] INFO  2012-03-22 23:06:54.044 Loading configuration file: Panasonic.conf
[main] INFO  2012-03-22 23:06:54.054 Loading configuration file: Bravia4500.conf
[main] INFO  2012-03-22 23:06:54.055 Loading configuration file: Philips.conf
[main] INFO  2012-03-22 23:06:54.056 Loading configuration file: PopcornHour.conf
[main] INFO  2012-03-22 23:06:54.057 Loading configuration file: PhilipsPFL.conf
[main] INFO  2012-03-22 23:06:54.060 Loading configuration file: WDTVLive.conf
[main] INFO  2012-03-22 23:06:54.061 Checking MPlayer font cache. It can take a minute or so.
[main] INFO  2012-03-22 23:06:54.071 Done!
[main] INFO  2012-03-22 23:06:54.103 Searching for plugins in /usr/lib/ps3mediaserver/plugins
[main] INFO  2012-03-22 23:06:54.113 No plugins found
[main] INFO  2012-03-22 23:06:54.138 Registering transcoding engine: FFmpeg Audio
[main] INFO  2012-03-22 23:06:54.140 Registering transcoding engine: MEncoder
[main] INFO  2012-03-22 23:06:54.140 Registering transcoding engine: MPlayer Audio
[main] INFO  2012-03-22 23:06:54.140 Registering transcoding engine: MEncoder Web
[main] INFO  2012-03-22 23:06:54.141 Registering transcoding engine: MPlayer Video Dump
[main] INFO  2012-03-22 23:06:54.141 Registering transcoding engine: MPlayer Web
[main] INFO  2012-03-22 23:06:54.142 Registering transcoding engine: tsMuxeR
[main] INFO  2012-03-22 23:06:54.142 Registering transcoding engine: Audio High Fidelity
[main] INFO  2012-03-22 23:06:54.142 Registering transcoding engine: VLC Audio Streaming
[main] INFO  2012-03-22 23:06:54.142 Registering transcoding engine: VLC Video Streaming
[main] INFO  2012-03-22 23:06:54.143 Registering transcoding engine: dcraw Thumbnailer
[main] INFO  2012-03-22 23:06:54.390 Using address /192.168.10.2 found on network interface: name:eth1 (eth1)
[main] INFO  2012-03-22 23:06:54.391 Created socket: /192.168.10.2:5001
[main] INFO  2012-03-22 23:06:54.508 Using database located at: /var/lib/ps3mediaserver/database-loz
[main] INFO  2012-03-22 23:06:54.807 A tiny cache admin interface is available at: http://192.168.10.2:5001/console/home
[main] INFO  2012-03-22 23:06:54.811 Checking shared folder: /media/share/videos/movies/family
[main] INFO  2012-03-22 23:06:54.811 Checking shared folder: /media/share/videos/movies/parents
[main] INFO  2012-03-22 23:06:54.812 Checking shared folder: /media/share/videos/personal
[main] INFO  2012-03-22 23:06:54.812 Checking shared folder: /media/share/music
[main] INFO  2012-03-22 23:06:54.812 Checking shared folder: /media/share/photos
[main] INFO  2012-03-22 23:06:54.812 Checking shared folder: /media/share/music/Podcasts
[main] INFO  2012-03-22 23:06:54.869 Using the following UUID configured in PMS.conf: b3aa9807-3625-3366-a8c5-806de042a6aa
[main] INFO  2012-03-22 23:07:00.331 The server should now appear on your renderer
[UPNPHelper] INFO  2012-03-22 23:07:52.883 No IP filter specified, access granted to /192.168.10.12
[pool-4-thread-1] INFO  2012-03-22 23:07:54.078 Checking IP: 192.168.10.12 for Playstation 3
[New I/O server worker #1-4] INFO  2012-03-22 23:07:54.189 Checking shared folder: /media/share/videos/movies/family
[New I/O server worker #1-4] INFO  2012-03-22 23:07:54.189 Checking shared folder: /media/share/videos/movies/parents
[New I/O server worker #1-4] INFO  2012-03-22 23:07:54.190 Checking shared folder: /media/share/videos/personal
[New I/O server worker #1-4] INFO  2012-03-22 23:07:54.190 Checking shared folder: /media/share/music
[New I/O server worker #1-4] INFO  2012-03-22 23:07:54.190 Checking shared folder: /media/share/photos
[New I/O server worker #1-4] INFO  2012-03-22 23:07:54.194 Checking shared folder: /media/share/music/Podcasts
[New I/O server worker #1-4] INFO  2012-03-22 23:07:54.201 Node(net.pms.dlna.virtual.MediaLibrary) already has an ID=0$8, which is overriden now. The previous parent node was:RootFolder[[MapFile [name=family, id=0$1, ext=null, children=[]], MapFile [name=parents, id=0$2, ext=null, children=[]], MapFile [name=personal, id=0$3, ext=null, children=[]], MapFile [name=music, id=0$4, ext=null, children=[]], MapFile [name=photos, id=0$5, ext=null, children=[]], MapFile [name=Podcasts, id=0$6, ext=null, children=[]], VirtualFolder [id=7, name=Web, full path=0$7, ext=null, discovered=false]]]
[pool-4-thread-1] INFO  2012-03-22 23:07:59.367 Renderer Playstation 3 found on this address: 192.168.10.12
[New I/O server worker #1-4] INFO  2012-03-22 23:08:23.243 The file /media/share/videos/movies/family/pvr/Movie: Legally Blonde.mpg was badly parsed. It will be hidden
[New I/O server worker #1-4] INFO  2012-03-22 23:08:23.245 The file /media/share/videos/movies/family/pvr/Movie: Legally Blonde 2: Red, White & Blonde.mpg was badly parsed. It will be hidden
[New I/O server worker #1-4] INFO  2012-03-22 23:08:23.251 The file /media/share/videos/movies/family/pvr/Movie: Scooby-Doo 2 - Monsters Unleashed.mpg was badly parsed. It will be hidden
[New I/O server worker #1-4] INFO  2012-03-22 23:08:23.255 The file /media/share/videos/movies/family/pvr/Movie: Seven Brides For Seven Brothers.mpg was badly parsed. It will be hidden
[New I/O server worker #1-8] INFO  2012-03-22 23:08:28.901 Starting transcode/remux of A Cinderella Story.mpg
[StartPlaying Event] INFO  2012-03-22 23:08:30.018 renderer: 192.168.10.12, file: /media/share/videos/movies/family/pvr/A Cinderella Story.mpg
[tsMuxeR-3] INFO  2012-03-22 23:08:30.072 Process /usr/lib/ps3mediaserver/linux/tsMuxeR has a return code of 254! Maybe an error occurred... check the log file
[StopPlaying Event] INFO  2012-03-22 23:08:34.536 renderer: 192.168.10.12, file: /media/share/videos/movies/family/pvr/A Cinderella Story.mpg
[New I/O server worker #1-2] INFO  2012-03-22 23:08:35.887 Starting transcode/remux of A Bugs Life.m4v
[StartPlaying Event] INFO  2012-03-22 23:08:37.058 renderer: 192.168.10.12, file: /media/share/videos/movies/family/A Bugs Life.m4v
[Process Destroyer] WARN  2012-03-22 23:08:40.073 Sending kill -14 to the Unix process: 3798
[Process Destroyer] WARN  2012-03-22 23:08:40.074 Sending kill -14 to the Unix process: 3815
[StopPlaying Event] INFO  2012-03-22 23:09:06.492 renderer: 192.168.10.12, file: /media/share/videos/movies/family/A Bugs Life.m4v
[Process Destroyer] WARN  2012-03-22 23:09:14.994 Sending kill -14 to the Unix process: 3870
[Process Destroyer] WARN  2012-03-22 23:09:14.995 Sending kill -14 to the Unix process: 3887


Also attached below the contents of the debug.log file.

debug.log.zip
(6.86 KiB) Downloaded 109 times


I am attempting to play the same 2 movies from the original post.

Mediainfo:

Code: Select all
$ mediainfo "A Cinderella Story.mpg"

General
ID                                       : 1072 (0x430)
Complete name                            : A Cinderella Story.mpg
Format                                   : MPEG-TS
File size                                : 4.89 GiB
Duration                                 : 2h 16mn
Overall bit rate mode                    : Variable
Overall bit rate                         : 5 148 Kbps

Video
ID                                       : 517 (0x205)
Menu ID                                  : 1074 (0x432)
Format                                   : MPEG Video
Format version                           : Version 2
Format profile                           : Main@Main
Format settings, BVOP                    : Yes
Format settings, Matrix                  : Custom
Codec ID                                 : 2
Duration                                 : 2h 16mn
Bit rate mode                            : Variable
Bit rate                                 : 4 700 Kbps
Maximum bit rate                         : 15.0 Mbps
Width                                    : 704 pixels
Height                                   : 576 pixels
Display aspect ratio                     : 16:9
Frame rate                               : 25.000 fps
Standard                                 : PAL
Color space                              : YUV
Chroma subsampling                       : 4:2:0
Bit depth                                : 8 bits
Scan type                                : Interlaced
Scan order                               : Top Field First
Compression mode                         : Lossy
Bits/(Pixel*Frame)                       : 0.464
Stream size                              : 4.46 GiB (91%)

Audio
ID                                       : 700 (0x2BC)
Menu ID                                  : 1074 (0x432)
Format                                   : MPEG Audio
Format version                           : Version 1
Format profile                           : Layer 2
Codec ID                                 : 4
Duration                                 : 2h 16mn
Bit rate mode                            : Constant
Bit rate                                 : 192 Kbps
Maximum bit rate                         : 201 Kbps
Channel(s)                               : 2 channels
Sampling rate                            : 48.0 KHz
Compression mode                         : Lossy
Delay relative to video                  : -130ms
Stream size                              : 187 MiB (4%)
Language                                 : English

Text
ID                                       : 581 (0x245)-801
Menu ID                                  : 1074 (0x432)
Format                                   : Teletext Subtitle
Language                                 : English

Menu
ID                                       : 258 (0x102)
Menu ID                                  : 1074 (0x432)
List                                     : 517 (0x205) (MPEG Video) / 581 (0x245) () / 700 (0x2BC) (MPEG Audio, English)
Language                                 :  /  / English
Maximum bit rate                         : 5320000


This movie results in the age old PS3 'Data Corrupted' error. I found the following in the debug.log
Code: Select all
[StartPlaying Event] INFO  2012-03-22 23:08:30.018 renderer: 192.168.10.12, file: /media/share/videos/movies/family/pvr/A Cinderella Story.mpg
[Thread-39] DEBUG 2012-03-22 23:08:30.061 Not enought buffer for parse video stream. Current frame num 0
[tsMuxeR-3] INFO  2012-03-22 23:08:30.072 Process /usr/lib/ps3mediaserver/linux/tsMuxeR has a return code of 254! Maybe an error occurred... check the log file

Any idea what this means? How can I have 'Not enough buffer for parse video stream'? Which log file should I be checking?

Code: Select all
$ mediainfo "A Bugs Life.m4v"
General
Complete name                            : A Bugs Life.m4v
Format                                   : MPEG-4
Format profile                           : Base Media / Version 2
Codec ID                                 : mp42
File size                                : 1.15 GiB
Duration                                 : 1h 31mn
Overall bit rate mode                    : Variable
Overall bit rate                         : 1 801 Kbps
Encoded date                             : UTC 2011-12-19 14:55:09
Tagged date                              : UTC 2011-12-19 15:17:56
Writing application                      : HandBrake 0.9.5 2011010300

Video
ID                                       : 1
Format                                   : AVC
Format/Info                              : Advanced Video Codec
Format profile                           : Main@L3.0
Format settings, CABAC                   : Yes
Format settings, ReFrames                : 4 frames
Codec ID                                 : avc1
Codec ID/Info                            : Advanced Video Coding
Duration                                 : 1h 31mn
Bit rate mode                            : Variable
Bit rate                                 : 1 632 Kbps
Width                                    : 702 pixels
Height                                   : 432 pixels
Display aspect ratio                     : 2.35:1
Frame rate mode                          : Variable
Frame rate                               : 25.000 fps
Minimum frame rate                       : 8.333 fps
Maximum frame rate                       : 105.140 fps
Color space                              : YUV
Chroma subsampling                       : 4:2:0
Bit depth                                : 8 bits
Scan type                                : Progressive
Bits/(Pixel*Frame)                       : 0.215
Stream size                              : 1.04 GiB (91%)
Writing library                          : x264 core 112
Encoding settings                        : cabac=1 / ref=2 / deblock=1:0:0 / analyse=0x1:0x111 / me=hex / subme=6 / psy=1 / psy_rd=1.00:0.00 / mixed_ref=0 / me_range=16 / chroma_me=1 / trellis=0 / 8x8dct=0 / cqm=0 / deadzone=21,11 / fast_pskip=1 / chroma_qp_offset=-2 / threads=12 / sliced_threads=0 / nr=0 / decimate=1 / interlaced=0 / constrained_intra=0 / bframes=2 / b_pyramid=2 / b_adapt=1 / b_bias=0 / direct=1 / weightb=0 / open_gop=0 / weightp=2 / keyint=250 / keyint_min=25 / scenecut=40 / intra_refresh=0 / rc_lookahead=40 / rc=crf / mbtree=1 / crf=20.0 / qcomp=0.60 / qpmin=3 / qpmax=51 / qpstep=4 / ip_ratio=1.40 / aq=1:1.00
Encoded date                             : UTC 2011-12-19 14:55:09
Tagged date                              : UTC 2011-12-19 15:17:56
Color primaries                          : BT.601-6 525, BT.1358 525, BT.1700 NTSC, SMPTE 170M
Transfer characteristics                 : BT.709-5, BT.1361
Matrix coefficients                      : BT.601-6 525, BT.1358 525, BT.1700 NTSC, SMPTE 170M

Audio
ID                                       : 2
Format                                   : AAC
Format/Info                              : Advanced Audio Codec
Format profile                           : LC
Codec ID                                 : 40
Duration                                 : 1h 31mn
Bit rate mode                            : Variable
Bit rate                                 : 165 Kbps
Maximum bit rate                         : 224 Kbps
Channel(s)                               : 2 channels
Channel positions                        : Front: L R
Sampling rate                            : 48.0 KHz
Compression mode                         : Lossy
Stream size                              : 107 MiB (9%)
Language                                 : English
Encoded date                             : UTC 2011-12-19 14:55:09
Tagged date                              : UTC 2011-12-19 15:17:55

Text
ID                                       : 3
Format                                   : Apple text
Codec ID                                 : text
Duration                                 : 1h 31mn
Bit rate mode                            : Constant
Bit rate                                 : 1 bps
Stream size                              : 888 Bytes (0%)
Encoded date                             : UTC 2011-12-19 14:55:09
Tagged date                              : UTC 2011-12-19 15:17:56


This movie results in no video and about 15 seconds of audio, and then nothing. I have to press 'O' on the PS3 remote to get back to the menu.

I really am at my wits end. Any help greatly appreciated.
loz
 
Posts: 17
Joined: Wed Mar 14, 2012 1:51 pm

Re: PS3 tsMuxeR problem Ubuntu 11.10 happy-neko PPA

Postby meskibob » Thu Mar 22, 2012 2:06 pm

What happens when you play the first one from the #Transcode# folder with MEncoder?
The second one is variable framerate - viewtopic.php?f=6&t=13774&p=66178&hilit=variable#p66178
I provide NO application support via PM or email, so please post your question to the forum per the Forum Rules.
meskibob
Moderator
 
Posts: 4784
Joined: Mon Jan 19, 2009 4:11 pm

Re: PS3 tsMuxeR problem Ubuntu 11.10 happy-neko PPA

Postby loz » Thu Mar 22, 2012 10:53 pm

I will check tonight what happens when I check the transcode folder.

Regarding the second movie, most of my movies are like this encoded using Handbrake from DVD. They all played fine in the pre 1.5x releases of PMS.
loz
 
Posts: 17
Joined: Wed Mar 14, 2012 1:51 pm

Re: PS3 tsMuxeR problem Ubuntu 11.10 happy-neko PPA

Postby loz » Fri Mar 23, 2012 2:29 pm

Hi,

In the #Transcode# folder I get the following results:
1. tsMuxeR - same, data corrupted
2. mencoder - works ok
3. no encoding - works ok
loz
 
Posts: 17
Joined: Wed Mar 14, 2012 1:51 pm

Re: PS3 tsMuxeR problem Ubuntu 11.10 happy-neko PPA

Postby loz » Fri Mar 23, 2012 2:32 pm

I should also say that all the movies played flawlessly for many months with the pre 1.5x release of PMS.
loz
 
Posts: 17
Joined: Wed Mar 14, 2012 1:51 pm

Next

Return to Linux/Unix Support

Who is online

Users browsing this forum: No registered users and 4 guests