Toshiba Regza

Discuss alternative media renderers (not PS3) supported by PS3 Media Server (e.g. Xbox 360, TVs &c.)

Re: Toshiba REGZA 32RV733G Video Problem

Postby irwinnk » Wed Oct 27, 2010 7:38 pm

Works a treat for the RV753 too. Thanks Illico.
This conf file should be included in next release or tested on some more Regzas for future inclusion.
Great work.
irwinnk
 
Posts: 3
Joined: Mon Oct 25, 2010 9:57 am

Re: Toshiba REGZA 32RV733G Video Problem

Postby xexanos » Wed Oct 27, 2010 11:03 pm

Finally fixed it :D
Changed in the PMS.conf (located in /Library/Application Support/PS3 Media Server/ on MacOS) following lines:
"fix_25fps_av_mismatch" into false
and
"audio_resample" into false.

Now everything works great :)
Thanks for your help again :)
xexanos
 
Posts: 6
Joined: Sun Oct 24, 2010 3:18 am

Re: Toshiba REGZA 32RV733G Video Problem

Postby jam1324 » Sun Nov 07, 2010 9:52 pm

Your conf file works great illico, fixed most of my problems for my toshiba except one with only a few files, I made a post about it at viewtopic.php?f=6&t=8314&p=39052#p39052 any ideas on that issue?
jam1324
 
Posts: 2
Joined: Sun Nov 07, 2010 7:48 pm

Re: Toshiba REGZA 32RV733G Video Problem

Postby joewmorrissey » Thu Dec 09, 2010 5:02 am

Ok so we just pickup a Toshiba 55ux600u tonight and wanting to stream my movies over to it through pms as I use it for the ps3 in media room and xbox in bedroom. I am running the mac version 1.20.409. I need the help for dummys walk through of loading this config file to test it or where even to start to mess with this thing. Everything I have used it before on just worked flawlessly, so haven't had to bother with anything on it. So if yall could give me the step by step dummy version I would be greatful.
joewmorrissey
 
Posts: 4
Joined: Thu Jan 22, 2009 12:01 am

Re: Toshiba REGZA 32RV733G Video Problem

Postby pomka » Thu Feb 24, 2011 7:35 pm

Toshiba 40RV733R. Illico conf. No sound. Why?
pomka
 
Posts: 6
Joined: Thu Feb 24, 2011 7:30 pm

Re: Toshiba REGZA 32RV733G Video Problem

Postby Illico » Thu Feb 24, 2011 8:44 pm

pomka wrote:Toshiba 40RV733R. Illico conf. No sound. Why?

What are the difference between 40RV733R and 32RV733G ?
Could you check your RV733R GetProtocolInfo?
Illico wrote:You can use Intel Tool:
- Install Intel UPnP tools
- run Device Spy
- It should list all your UPnP device and among them your device (eg TV, console, etc)
- Expand the device's tree and find service: urn:upnp-org:serviceId:ConnectionManager:1
- Expand that and double click on GetProtocolInfo(...).
- Click on Invoke and the result is in field Sink.
- Post it


Could you also provide MediaInfo result of your file ?
Sony Bravia KDL-46EX501 | Sony BDP-S373 | Sony SMP-N100 |Serviio / PS3MS | Buffalo 2Share DD
User avatar
Illico
 
Posts: 129
Joined: Wed Jun 30, 2010 2:28 pm
Location: France

Re: Toshiba REGZA 32RV733G Video Problem

Postby pomka » Thu Feb 24, 2011 9:34 pm

MediaServer:
Code: Select all
http-get:*:image/jpeg:DLNA.ORG_PN=JPEG_SM,http-get:*:image/jpeg:DLNA.ORG_PN=JPEG_MED,http-get:*:image/jpeg:DLNA.ORG_PN=JPEG_LRG,http-get:*:audio/mpeg:DLNA.ORG_PN=MP3,http-get:*:audio/L16:DLNA.ORG_PN=LPCM,http-get:*:video/mpeg:DLNA.ORG_PN=AVC_TS_HD_24_AC3_ISO;SONY.COM_PN=AVC_TS_HD_24_AC3_ISO,http-get:*:video/vnd.dlna.mpeg-tts:DLNA.ORG_PN=AVC_TS_HD_24_AC3;SONY.COM_PN=AVC_TS_HD_24_AC3,http-get:*:video/vnd.dlna.mpeg-tts:DLNA.ORG_PN=AVC_TS_HD_24_AC3_T;SONY.COM_PN=AVC_TS_HD_24_AC3_T,http-get:*:video/vnd.dlna.mpeg-tts:DLNA.ORG_PN=MPEG_PS_PAL,http-get:*:video/vnd.dlna.mpeg-tts:DLNA.ORG_PN=MPEG_PS_NTSC,http-get:*:video/vnd.dlna.mpeg-tts:DLNA.ORG_PN=MPEG_TS_SD_50_L2_T,http-get:*:video/vnd.dlna.mpeg-tts:DLNA.ORG_PN=MPEG_TS_SD_60_L2_T,http-get:*:video/mpeg:DLNA.ORG_PN=MPEG_TS_SD_EU_ISO,http-get:*:video/vnd.dlna.mpeg-tts:DLNA.ORG_PN=MPEG_TS_SD_EU,http-get:*:video/vnd.dlna.mpeg-tts:DLNA.ORG_PN=MPEG_TS_SD_EU_T,http-get:*:video/vnd.dlna.mpeg-tts:DLNA.ORG_PN=MPEG_TS_SD_50_AC3_T,http-get:*:video/mpeg:DLNA.ORG_PN=MPEG_TS_HD_50_L2_ISO;SONY.COM_PN=HD2_50_ISO,http-get:*:video/vnd.dlna.mpeg-tts:DLNA.ORG_PN=MPEG_TS_SD_60_AC3_T,http-get:*:video/mpeg:DLNA.ORG_PN=MPEG_TS_HD_60_L2_ISO;SONY.COM_PN=HD2_60_ISO,http-get:*:video/vnd.dlna.mpeg-tts:DLNA.ORG_PN=MPEG_TS_HD_50_L2_T;SONY.COM_PN=HD2_50_T,http-get:*:video/vnd.dlna.mpeg-tts:DLNA.ORG_PN=MPEG_TS_HD_60_L2_T;SONY.COM_PN=HD2_60_T,http-get:*:video/mpeg:DLNA.ORG_PN=AVC_TS_HD_50_AC3_ISO;SONY.COM_PN=AVC_TS_HD_50_AC3_ISO,http-get:*:video/vnd.dlna.mpeg-tts:DLNA.ORG_PN=AVC_TS_HD_50_AC3;SONY.COM_PN=AVC_TS_HD_50_AC3,http-get:*:video/mpeg:DLNA.ORG_PN=AVC_TS_HD_60_AC3_ISO;SONY.COM_PN=AVC_TS_HD_60_AC3_ISO,http-get:*:video/vnd.dlna.mpeg-tts:DLNA.ORG_PN=AVC_TS_HD_60_AC3;SONY.COM_PN=AVC_TS_HD_60_AC3,http-get:*:video/vnd.dlna.mpeg-tts:DLNA.ORG_PN=AVC_TS_HD_50_AC3_T;SONY.COM_PN=AVC_TS_HD_50_AC3_T,http-get:*:video/vnd.dlna.mpeg-tts:DLNA.ORG_PN=AVC_TS_HD_60_AC3_T;SONY.COM_PN=AVC_TS_HD_60_AC3_T,http-get:*:video/x-mp2t-mphl-188:*,http-get:*:*:*,http-get:*:video/*:*,http-get:*:audio/*:*,http-get:*:image/*:*


Video:
Code: Select all
mediainfo mvi_3278.avi
General
Complete name                    : mvi_3278.avi
Format                           : AVI
Format/Info                      : Audio Video Interleave
File size                        : 440 MiB
Duration                         : 4mn 13s
Overall bit rate                 : 14.6 Mbps
Mastered date                    : SUN DEC 12 12:55:57 2010
Writing application              : CanonMVI06

Video
ID                               : 0
Format                           : JPEG
Codec ID                         : MJPG
Duration                         : 4mn 13s
Bit rate                         : 13.9 Mbps
Width                            : 640 pixels
Height                           : 480 pixels
Display aspect ratio             : 4:3
Frame rate                       : 30.000 fps
Color space                      : YUV
Chroma subsampling               : 4:2:2
Bit depth                        : 8 bits
Scan type                        : Progressive
Compression mode                 : Lossy
Bits/(Pixel*Frame)               : 1.505
Stream size                      : 419 MiB (95%)

Audio
ID                               : 1
Format                           : PCM
Format settings, Endianness      : Little
Format settings, Sign            : Signed
Codec ID                         : 1
Codec ID/Hint                    : Microsoft
Duration                         : 4mn 13s
Bit rate mode                    : Constant
Bit rate                         : 705.6 Kbps
Channel(s)                       : 1 channel
Sampling rate                    : 44.1 KHz
Bit depth                        : 16 bits
Stream size                      : 21.3 MiB (5%)
Interleave, duration             : 997 ms (29.92 video frames)
Interleave, preload duration     : 1000 ms
pomka
 
Posts: 6
Joined: Thu Feb 24, 2011 7:30 pm

Re: Toshiba REGZA 32RV733G Video Problem

Postby Illico » Fri Feb 25, 2011 8:54 pm

pomka wrote:MediaServer:

Not sure this is your Toshiba TV result.Could you check?

pomka wrote:Video:

This video must be transcoded by PSM.
Do you try serviio.org?
Sony Bravia KDL-46EX501 | Sony BDP-S373 | Sony SMP-N100 |Serviio / PS3MS | Buffalo 2Share DD
User avatar
Illico
 
Posts: 129
Joined: Wed Jun 30, 2010 2:28 pm
Location: France

Re: Toshiba REGZA 32RV733G Video Problem

Postby pomka » Sat Feb 26, 2011 1:46 pm

Problem in my Linux distribution. Ubuntu works fine.

New problem. Play Video files only from #Transcode# folder. From root dir get "Play error".
pomka
 
Posts: 6
Joined: Thu Feb 24, 2011 7:30 pm

Re: Toshiba REGZA 32RV733G Video Problem

Postby pomka » Sat Feb 26, 2011 2:58 pm

Solved. Need to install libmediainfo. https://launchpad.net/~shiki/+archive/mediainfo
pomka
 
Posts: 6
Joined: Thu Feb 24, 2011 7:30 pm

PreviousNext

Return to Alternative Media Renderers

Who is online

Users browsing this forum: No registered users and 1 guest

cron