.mkv hanging with less than 10 secs left on playback

For help and support with PS3 Media Server in general
Forum rules
Please make sure you follow the Problem Reporting Guidelines before posting if you want a reply.

.mkv hanging with less than 10 secs left on playback

Postby Gotzerocool » Wed Nov 24, 2010 11:08 pm

Hey Now,
Every .mkv seems to be hanging with less than 10 seconds left in the show on my system but I'll use this one as an example. It only really bothers me when they are hd tv shows as I always miss the end whereas with movies it's just credits so not a big deal.

I have a PS3 and am streaming to it using:


Model Name: MacBook Pro
Model Identifier: MacBookPro6,1
Processor Name: Intel Core i7
Processor Speed: 2.66 GHz
Number Of Processors: 1
Total Number Of Cores: 2
L2 Cache (per core): 256 KB
L3 Cache: 4 MB
Memory: 8 GB

And the mediainfo is:

General
UniqueID : 0 (0x0)
Complete name : /Users/*******/Downloads/glory.daze.s01e02.720p.hdtv.x264.ctu.mkv
Format : Matroska
File size : 1.09 GiB
Duration : 42mn 0s
Overall bit rate : 3 724 Kbps
Movie name : glory.daze.s01e02.720p.hdtv.x264.ctu.mkv 4621
Encoded date : UTC 2010-02-22 21:41:29
Writing application : no_variable_data
Writing library : no_variable_data

Video
ID : 2
Format : AVC
Format/Info : Advanced Video Codec
Format profile : High@L3.1
Format settings, CABAC : Yes
Format settings, ReFrames : 3 frames
Format settings, GOP : M=7, N=12
Codec ID : V_MPEG4/ISO/AVC
Duration : 42mn 0s
Bit rate : 3 274 Kbps
Width : 1 280 pixels
Height : 720 pixels
Display aspect ratio : 16:9
Frame rate : 23.976 fps
Color space : YUV
Chroma subsampling : 4:2:0
Bit depth : 8 bits
Scan type : Progressive
Bits/(Pixel*Frame) : 0.148
Stream size : 962 MiB (86%)
Writing library : x264 core 85 r1442tw
Encoding settings : cabac=1 / ref=3 / deblock=1:0:0 / analyse=0x3:0x113 / me=hex / subme=6 / psy=1 / psy_rd=1.00:0.00 / mixed_ref=0 / me_range=16 / chroma_me=1 / trellis=1 / 8x8dct=1 / cqm=0 / deadzone=21,11 / fast_pskip=1 / chroma_qp_offset=-2 / threads=16 / sliced_threads=0 / nr=0 / decimate=1 / mbaff=0 / constrained_intra=0 / bframes=6 / b_pyramid=1 / b_adapt=1 / b_bias=0 / direct=1 / wpredb=1 / wpredp=0 / keyint=240 / keyint_min=24 / scenecut=40 / intra_refresh=0 / rc_lookahead=40 / rc=2pass / mbtree=1 / bitrate=3274 / ratetol=1.0 / qcomp=0.60 / qpmin=10 / qpmax=51 / qpstep=4 / cplxblur=20.0 / qblur=0.5 / ip_ratio=1.40 / aq=1:1.00
Language : English

Audio
ID : 1
Format : AC-3
Format/Info : Audio Coding 3
Mode extension : CM (complete main)
Codec ID : A_AC3
Duration : 42mn 0s
Bit rate mode : Constant
Bit rate : 448 Kbps
Channel(s) : 6 channels
Channel positions : Front: L C R, Side: L R, LFE
Sampling rate : 48.0 KHz
Bit depth : 16 bits
Compression mode : Lossy
Stream size : 135 MiB (12%)

I'm new at this so any help is most appreciated. I hope I have posted enough info.
Thanx in advance,
Zero.
Gotzerocool
 
Posts: 5
Joined: Wed Nov 24, 2010 10:49 pm

Re: .mkv hanging with less than 10 secs left on playback

Postby dlim98 » Mon Nov 29, 2010 6:09 am

i'm having the exact same problem
dlim98
 
Posts: 2
Joined: Tue Aug 24, 2010 6:31 pm

Re: .mkv hanging with less than 10 secs left on playback

Postby devildog93 » Mon Nov 29, 2010 10:08 am

Maybe.........restart PMS, try playing a file, then posting your debug.log

I'm wondering if enabling "sequential playback" might help????? If you don't have it enabled.

Can you skip to the next video file in the folder with your controller or Sony BD remote? Or does it hang, and PMS freezes?

Also, does it do it with MEncoder, or tsMuxer? Have you tried other #transcode# folder options?
User avatar
devildog93
 
Posts: 1301
Joined: Fri Mar 19, 2010 8:37 pm

Re: .mkv hanging with less than 10 secs left on playback

Postby ziatonic » Wed Nov 21, 2012 7:40 pm

This happens to me too. Sequential Playback is on. Its been happening for a while now when before the videos would advance.
ziatonic
 
Posts: 12
Joined: Wed Nov 21, 2012 10:24 am

Re: .mkv hanging with less than 10 secs left on playback

Postby chocolateboy » Wed Nov 21, 2012 8:25 pm

Please don't necropost. Thread locked.
chocolateboy
Project Member
 
Posts: 2579
Joined: Wed Sep 16, 2009 10:05 am


Return to General Help and Support

Who is online

Users browsing this forum: Yahoo [Bot] and 11 guests