No Audio on Some File Plays Fine on Others

For help and support with PS3 Media Server in general
Forum rules
Please make sure you follow the Problem Reporting Guidelines before posting if you want a reply.

No Audio on Some File Plays Fine on Others

Postby soulfire99 » Tue Jul 07, 2009 2:06 am

Hi,

Specs: P4 3.4ghz with 2gigs of ram and windows xp sp3 I am useing wireless to connect to my ps3

Problem: I have some files that will play fine and others that will not have audio even while using mencoder to transcode. Could you please tell me my problem?

I can play both of these files on my PC with no problems but when I try to play on my PS3 they have no sound. Please let me know what I am doing wrong.

Here are the specs for the two files:

File One (No Audio Video Play Back is Good)
Format : AVI
Format/Info : Audio Video Interleave
File size : 700 MiB
Duration : 1h 39mn
Overall bit rate : 987 Kbps
Writing application : Nandub v1.0rc2
Writing library : Nandub build 1852/release
Video
Format : MPEG-4 Visual
Format profile : Streaming Video@L1
Format settings, BVOP : Yes
Format settings, QPel : No
Format settings, GMC : No warppoints
Format settings, Matrix : Default
Codec ID : XVID
Codec ID/Hint : XviD

Bit rate : 810 Kbps
Width : 640 pixels
Height : 272 pixels
Display aspect ratio : 2.35
Frame rate : 23.976 fps
Resolution : 24 bits
Colorimetry : 4:2:0
Scan type : Progressive
Bits/(Pixel*Frame) : 0.194
Stream size : 575 MiB (82%)
Writing library : XviD 1.2.1 (UTC 2008-12-04)
Audio
Format : MPEG Audio
Format version : Version 1
Format profile : Layer 3
Codec ID : 55
Codec ID/Hint : MP3
Duration : 1h 39mn
Bit rate mode : Variable
Bit rate : 164 Kbps
Nominal bit rate : 160 Kbps
Channel(s) : 2 channels
Sampling rate : 48.0 KHz
Resolution : 16 bits
Video delay : 1s 488ms
Stream size : 116 MiB (17%)
Alignment : Aligned on interleaves
Interleave, duration : 24 ms (0.58 video frame)
Interleave, preload duration : 1125 ms
Writing library : LAME3.90.
Encoding settings : ABR


File 2 (Video and Audio Play Back is Good)

Format : AVI
Format/Info : Audio Video Interleave
File size : 699 MiB
Duration : 2h 3mn
Overall bit rate : 792 Kbps
Writing application : VirtualDubMod 1.5.10.2 (build 2540/release)
Writing library : VirtualDubMod build 2540/release
Video
Format : MPEG-4 Visual
Format profile : Streaming Video@L1
Format settings, BVOP : Yes
Format settings, QPel : No
Format settings, GMC : No warppoints
Format settings, Matrix : Default
Muxing mode : Packed bitstream
Codec ID : XVID
Codec ID/Hint : XviD
Duration : 2h 3mn
Bit rate : 654 Kbps
Width : 576 pixels
Height : 240 pixels
Display aspect ratio : 2.400
Frame rate : 23.976 fps
Resolution : 24 bits
Colorimetry : 4:2:0
Scan type : Progressive
Bits/(Pixel*Frame) : 0.197
Stream size : 576 MiB (82%)
Writing library : XviD 1.2.0.dev47 (UTC 2006-11-01)
Audio
Format : MPEG Audio
Format version : Version 1
Format profile : Layer 3
Codec ID : 55
Codec ID/Hint : MP3
Duration : 2h 3mn
Bit rate mode : Variable
Bit rate : 126 Kbps
Nominal bit rate : 128 Kbps
Channel(s) : 2 channels
Sampling rate : 48.0 KHz
Resolution : 16 bits
Stream size : 111 MiB (16%)
Alignment : Aligned on interleaves
Interleave, duration : 24 ms (0.58 video frame)
Interleave, preload duration : 502 ms
Writing library : LAME3.90.
Encoding settings : ABR

Best Regards,

Matthew
soulfire99
 
Posts: 2
Joined: Tue Jul 07, 2009 2:02 am

Re: No Audio on Some File Plays Fine on Others

Postby soulfire99 » Wed Jul 08, 2009 1:22 am

Anyone have any ideas?
soulfire99
 
Posts: 2
Joined: Tue Jul 07, 2009 2:02 am

Re: No Audio on Some File Plays Fine on Others

Postby bahamot » Wed Jul 08, 2009 5:43 am

Have you tried avisynth/ffmpeg?
bahamot
 
Posts: 65
Joined: Sat Jul 04, 2009 11:02 am


Return to General Help and Support

Who is online

Users browsing this forum: Bing [Bot] and 16 guests