Need Help

For help and support with issues specific to Mac OS X
Forum rules
Please make sure you follow the Problem Reporting Guidelines before posting if you want a reply.

Need Help

Postby dpow3ll » Thu Oct 08, 2009 1:57 am

Sorry guys im new here i need some help. I download PS3 media serve. its connect and i can transfer files. They show up on the PS3. However i can not get the video to play. The messages that come up are either the data is corrupted or is not supported. Can someone PLEASEEEEEEEEEEE help me fix this so i can stream and watch the video. It is very frustrating.
dpow3ll
 
Posts: 6
Joined: Thu Oct 08, 2009 1:53 am

Re: Need Help

Postby meskibob » Thu Oct 08, 2009 2:25 am

Play it from the #Transcode# folder.
For more general infos: viewtopic.php?f=6&t=3507
I provide NO application support via PM or email, so please post your question to the forum per the Forum Rules.
meskibob
Moderator
 
Posts: 4788
Joined: Mon Jan 19, 2009 4:11 pm

Re: Need Help

Postby dpow3ll » Thu Oct 08, 2009 2:50 am

i did that and it is saying the data is corrupted... (its avi file btw)
dpow3ll
 
Posts: 6
Joined: Thu Oct 08, 2009 1:53 am

Re: Need Help

Postby meskibob » Thu Oct 08, 2009 3:13 am

Then need more info: viewtopic.php?f=6&t=496
I provide NO application support via PM or email, so please post your question to the forum per the Forum Rules.
meskibob
Moderator
 
Posts: 4788
Joined: Mon Jan 19, 2009 4:11 pm

Re: Need Help

Postby dpow3ll » Thu Oct 08, 2009 3:28 am

running on mac osx 10.5.8. Streaming to a PS3. using my home wifi. MEncoder. (you know what the problem is) and not sure how to get the debug.log- sorry im new man :(
dpow3ll
 
Posts: 6
Joined: Thu Oct 08, 2009 1:53 am

Re: Need Help

Postby meskibob » Thu Oct 08, 2009 3:31 am

viewtopic.php?f=7&t=78&start=0
And don't forget the MediaInfo text output.
I provide NO application support via PM or email, so please post your question to the forum per the Forum Rules.
meskibob
Moderator
 
Posts: 4788
Joined: Mon Jan 19, 2009 4:11 pm

Re: Need Help

Postby dpow3ll » Thu Oct 08, 2009 3:43 am

<?xml version="1.0" encoding="UTF-8"?>
<!DOCTYPE plist PUBLIC "-//Apple//DTD PLIST 1.0//EN" "http://www.apple.com/DTDs/PropertyList-1.0.dtd">
<plist version="1.0">
<dict>
<key>CFBundleName</key>
<string>PS3 Media Server</string>
<key>CFBundleVersion</key>
<string>1.10.5</string>
<key>CFBundleAllowMixedLocalizations</key>
<string>true</string>
<key>CFBundleExecutable</key>
<string>JavaApplicationStub</string>
<key>CFBundleDevelopmentRegion</key>
<string>English</string>
<key>CFBundlePackageType</key>
<string>APPL</string>
<key>CFBundleSignature</key>
<string>????</string>
<key>CFBundleInfoDictionaryVersion</key>
<string>6.0</string>
<key>CFBundleIconFile</key>
<string>pms.icns</string>
<key>Java</key>
<dict>
<key>WorkingDirectory</key>
<string>$APP_PACKAGE/Contents/Resources/Java</string>
<key>VMOptions</key>
<string>-Xmx768M -Djava.encoding=UTF-8 -Djava.net.preferIPv4Stack=true -jar</string>
<key>MainClass</key>
<string>net.pms.PMS</string>
<key>JVMVersion</key>
<string>1.5+</string>
<key>ClassPath</key>
<string>$JAVAROOT/pms.jar</string>
<key>Properties</key>
<dict>
<key>apple.laf.useScreenMenuBar</key>
<string>true</string>
</dict>
</dict>
</dict>
</plist>
Attachments
debug.log.zip
(124.9 KiB) Downloaded 47 times
dpow3ll
 
Posts: 6
Joined: Thu Oct 08, 2009 1:53 am

Re: Need Help

Postby dpow3ll » Sun Oct 11, 2009 5:58 pm

anyone any advice???
dpow3ll
 
Posts: 6
Joined: Thu Oct 08, 2009 1:53 am

Re: Need Help

Postby meskibob » Sun Oct 11, 2009 6:15 pm

You didn't post the MediaInfo - http://mediainfo.sourceforge.net/en
And it appears it's not finding MPlayer... Not sure what to with that, so I'm moving this to the OSX section of the forum.
I provide NO application support via PM or email, so please post your question to the forum per the Forum Rules.
meskibob
Moderator
 
Posts: 4788
Joined: Mon Jan 19, 2009 4:11 pm

Re: Need Help

Postby dpow3ll » Fri Oct 16, 2009 12:31 am

Format settings, Matrix : Default (H.263)
Codec ID : XVID
Codec ID/Hint : XviD
Duration : 22mn 34s
Bit rate : 652 Kbps
Width : 640 pixels
Height : 480 pixels
Display aspect ratio : 4:3
Frame rate : 23.976 fps
Resolution : 24 bits
Colorimetry : 4:2:0
Scan type : Progressive
Bits/(Pixel*Frame) : 0.089
Stream size : 105 MiB (76%)
Writing library : XviD 0.0.09 (UTC 2003-03-25)

Audio
ID : 1
Format : MPEG Audio
Format version : Version 1
Format profile : Layer 3
Codec ID : 55
Codec ID/Hint : MP3
Duration : 22mn 34s
Bit rate mode : Constant
Bit rate : 192 Kbps
Channel(s) : 2 channels
Sampling rate : 48.0 KHz
Resolution : 16 bits
Stream size : 31.0 MiB (22%)
Alignment : Split accross interleaves
Interleave, duration : 42 ms (1.00 video frame)
Interleave, preload duration : 466 ms
dpow3ll
 
Posts: 6
Joined: Thu Oct 08, 2009 1:53 am


Return to Mac OS X Support

Who is online

Users browsing this forum: Google [Bot], Yahoo [Bot] and 3 guests