Can't stream m4a (itunes) to Samsung from OSX

For help and support with issues specific to Mac OS X
Forum rules
Please make sure you follow the Problem Reporting Guidelines before posting if you want a reply.

Can't stream m4a (itunes) to Samsung from OSX

Postby jonathantrevor » Tue Jul 21, 2009 4:02 am

This may not specifically be an OSX issue, but when I try and play a no-DRM itunes track (*.m4a) in v1.20 I get "format not supported" from my Samsung B850. From the trace I can see this:

[New I/O server worker #1-1] TRACE 19:46:12.449 Renderer Samsung Wiselink found on this address: /192.168.1.24
[New I/O server worker #1-1] TRACE 19:51:34.656 Starting transcode/remux of 10 Theme From Inspector Morse.m4a
[New I/O server worker #1-2] TRACE 19:51:40.724 Starting transcode/remux of 11 Sadness.m4a

I can't actually see any "Audio Files Engines" in the Transcode Settings tab.

Am I missing something obvious?

Jonathan
jonathantrevor
 
Posts: 5
Joined: Tue Jul 21, 2009 3:55 am

Re: Can't stream m4a (itunes) to Samsung from OSX

Postby shagrath » Tue Jul 21, 2009 9:48 pm

which audio format is supported by your samsung tv ?
shagrath
Project Lead
 
Posts: 2667
Joined: Wed Jan 14, 2009 1:39 pm

Re: Can't stream m4a (itunes) to Samsung from OSX

Postby jonathantrevor » Tue Jul 21, 2009 10:09 pm

Attached

(video formats and audio codecs it supports)

There isnt an explicit audio table so I'd guess mp3 (from another reference in the docs) but looking at the table perhaps some other formats too.

Jonathan
Attachments
Picture 1.png
Samsung PNXXB850 file formats
Picture 1.png (73.82 KiB) Viewed 2242 times
jonathantrevor
 
Posts: 5
Joined: Tue Jul 21, 2009 3:55 am

Re: Can't stream m4a (itunes) to Samsung from OSX

Postby shagrath » Tue Jul 21, 2009 10:34 pm

in the renderers folder, modify the Samsung.conf file: replace TranscodeAudio=PCM by TranscodeAudio=MP3
(I think you can edit the dmg contents package on osx if I remember right)
shagrath
Project Lead
 
Posts: 2667
Joined: Wed Jan 14, 2009 1:39 pm

Re: Can't stream m4a (itunes) to Samsung from OSX

Postby jonathantrevor » Thu Jul 23, 2009 4:00 am

Still no joy, heres my conf:

Code: Select all
RendererName=Samsung Wiselink
RendererIcon=bravia.png
UserAgentSearch=wiselink
Video=true
Audio=true
Image=true
TranscodeVideo=MPEGAC3
TranscodeAudio=MP3
DefaultVBVBufSize=true
MuxH264ToMpegTS=true
MuxDTSToMpeg=true
WrapDTSIntoPCM=false
MuxLPCMToMpeg=false
MaxVideoBitrateMbps=0
MaxVideoWidth=0
MaxVideoHeight=0
SeekByTime=true
MimeTypesChanges=audio/wav=audio/L16|video/x-matroska=video/avi
TranscodeExtensions=mov,m4a
StreamExtensions=mp3,mp4,avi,mkv


I guess that there's a problem with ffmpeg based on the trace:
Code: Select all
New I/O server worker #2-1] TRACE 19:56:22.612 Starting transcode/remux of 01 Mulder And Scully.m4a
[osx/ffmpeg] TRACE 19:56:23.338 Process /Applications/PS3 Media Server.app/Contents/Resources/Java/osx/ffmpeg has a return code of 1! Maybe an error occured... check the log file
[New I/O server worker #2-1] TRACE 19:56:30.294 Starting transcode/remux of 02 Game On.m4a
[osx/ffmpeg] TRACE 19:56:30.485 Process /Applications/PS3 Media Server.app/Contents/Resources/Java/osx/ffmpeg has a return code of 1! Maybe an error occured... check the log file


Not sure where to start...

Should I be seeing something in the "Audio Files Engines" in "Transcode Settings"? Its blank...

Here's a likely looking fragment from debug.log:
Code: Select all
[pool-28-thread-2] DEBUG 19:56:18.658 Media info of : /Users/jonathantrevor/Music/iTunes/iTunes Music/Catatonia/International Velvet/05 Johnny Come Lately.m4a / mimeType: audio/mp4 / container: null / bitrate: 256 / size: 8903374 / codecV: null / duration: 00:04:36.00 / width: 0 / height: 0 / frameRate: null / thumb size : 0
   audio: id=0 / lang: null / codec: aac / sf:44100
[pool-28-thread-1] DEBUG 19:56:18.659 <<<
[pool-28-thread-1] INFO  19:56:18.659 error in parsing unimportant metadata: For input string: "7/12"


Jonathan
jonathantrevor
 
Posts: 5
Joined: Tue Jul 21, 2009 3:55 am

Re: Can't stream m4a (itunes) to Samsung from OSX

Postby shagrath » Thu Jul 23, 2009 8:22 am

the relevant part of the debug.log should talk about the ffmpeg mp3 encode
shagrath
Project Lead
 
Posts: 2667
Joined: Wed Jan 14, 2009 1:39 pm

Re: Can't stream m4a (itunes) to Samsung from OSX

Postby jonathantrevor » Thu Jul 23, 2009 4:03 pm

Code: Select all
[New I/O server worker #2-2] INFO  19:56:18.725 Calculated size: 40395600
[New I/O server worker #2-2] INFO  19:56:18.726 Calculated size: 39513600
[New I/O server worker #2-2] INFO  19:56:18.727 Calculated size: 25754400
[New I/O server worker #2-2] DEBUG 19:56:18.728 Sent to socket: Content-Length: 9017
[New I/O server worker #2-2] DEBUG 19:56:18.728 Sent to socket: Content-Type: text/xml; charset="utf-8"
[New I/O server worker #2-2] DEBUG 19:56:18.728 Sent to socket: Server: Mac_OS_X-x86_64-10.5.7, UPnP/1.0, PMS/1.20
[New I/O server worker #2-1] DEBUG 19:56:22.611 Opened handler on socket /192.168.1.24:4462 // Samsung Wiselink
[New I/O server worker #2-1] DEBUG 19:56:22.611 Handler infos: HTTP/1.0 : HEAD : get/0$1$0$0$0/01+Mulder+And+Scully.m4a
[New I/O server worker #2-1] DEBUG 19:56:22.611 Received on socket: getcontentFeatures.dlna.org: 1
[New I/O server worker #2-1] DEBUG 19:56:22.611 Received on socket: Host: 192.168.1.99:5001
[New I/O server worker #2-1] INFO  19:56:22.611 HTTP: get/0$1$0$0$0/01+Mulder+And+Scully.m4a / 0-0
[New I/O server worker #2-1] DEBUG 19:56:22.612 Searching for objectId: 0$1$0$0$0 with children option: false
[New I/O server worker #2-1] DEBUG 19:56:22.612 Asked stream chunk [0-0] timeseek: 0.0 of 01 Mulder And Scully.m4a and player MPlayer Audio
[New I/O server worker #2-1] TRACE 19:56:22.612 Starting transcode/remux of 01 Mulder And Scully.m4a
[New I/O server worker #2-1] DEBUG 19:56:22.613 Searching an audio track with lang: fre
[New I/O server worker #2-1] DEBUG 19:56:22.622 Searching an audio track with lang: jpn
[New I/O server worker #2-1] DEBUG 19:56:22.622 Searching an audio track with lang: ger
[New I/O server worker #2-1] DEBUG 19:56:22.622 Searching an audio track with lang: eng
[New I/O server worker #2-1] DEBUG 19:56:22.622 Choosed a default audio track: Audio: AAC / lang: null / ID: 0
[New I/O server worker #2-1] DEBUG 19:56:22.623 Searching a subtitle track with lang: fre
[New I/O server worker #2-1] DEBUG 19:56:22.623 Searching a subtitle track with lang: eng
[osx/ffmpeg] INFO  19:56:22.623 Starting /Applications/PS3 Media Server.app/Contents/Resources/Java/osx/ffmpeg -sn -sn -sn -sn -sn -sn -i /Users/jonathantrevor/Music/iTunes/iTunes Music/Catatonia/International Velvet/01 Mulder And Scully.m4a -sn -sn -f mp3 -ab 320000 -muxpreload 0 pipe:
[osx/ffmpeg] INFO  19:56:23.336 Attaching thread: osx/ffmpeg
[Timer-0] DEBUG 19:56:23.336 Buffered Space: 0 bytes / inputs: 0
[Thread-22] DEBUG 19:56:23.337 FFmpeg version SVN-r18717-snapshot, Copyright (c) 2000-2009 Fabrice Bellard, et al.
[Thread-22] DEBUG 19:56:23.337   configuration: --prefix=/Users/robin/Development/mplayerlibs --disable-shared --enable-static --enable-pthreads --enable-gpl
[Thread-22] DEBUG 19:56:23.337   libavutil     50. 3. 0 / 50. 3. 0
[Thread-22] DEBUG 19:56:23.337   libavcodec    52.27. 0 / 52.27. 0
[Thread-22] DEBUG 19:56:23.337   libavformat   52.32. 0 / 52.32. 0
[Thread-22] DEBUG 19:56:23.337   libavdevice   52. 2. 0 / 52. 2. 0
[Thread-22] DEBUG 19:56:23.337   libswscale     0. 7. 1 /  0. 7. 1
[Thread-22] DEBUG 19:56:23.337   built on Apr 30 2009 22:20:59, gcc: 4.0.1 (Apple Inc. build 5493)
[Thread-22] DEBUG 19:56:23.337 Input #0, mov,mp4,m4a,3gp,3g2,mj2, from '/Users/jonathantrevor/Music/iTunes/iTunes Music/Catatonia/International Velvet/01 Mulder And Scully.m4a':
[Thread-22] DEBUG 19:56:23.337   Duration: 00:04:11.51, start: 0.000000, bitrate: 256 kb/s
[Thread-22] DEBUG 19:56:23.337     Stream #0.0(und): Audio: aac, 44100 Hz, stereo, s16
[Thread-22] DEBUG 19:56:23.337 Output #0, mp3, to 'pipe:':
[Thread-22] DEBUG 19:56:23.337     Stream #0.0(und): Audio: 0x0000, 44100 Hz, stereo, s16, 320 kb/s
[Thread-22] DEBUG 19:56:23.337 Stream mapping:
[Thread-22] DEBUG 19:56:23.337   Stream #0.0 -> #0.0
[Thread-22] DEBUG 19:56:23.337 Unsupported codec for output stream #0.0
[osx/ffmpeg] DEBUG 19:56:23.338 EOF
[osx/ffmpeg] TRACE 19:56:23.338 Process /Applications/PS3 Media Server.app/Contents/Resources/Java/osx/ffmpeg has a return code of 1! Maybe an error occured... check the log file
[New I/O server worker #2-1] DEBUG 19:56:24.625 Ready to Stop: true
[New I/O server worker #2-1] DEBUG 19:56:24.626 Sent to socket: Connection: keep-alive
[New I/O server worker #2-1] DEBUG 19:56:24.626 Sent to socket: Content-Type: audio/mpeg
[New I/O server worker #2-1] DEBUG 19:56:24.626 Sent to socket: ContentFeatures.DLNA.ORG: DLNA.ORG_PN=MP3;DLNA.ORG_OP=01;DLNA.ORG_CI=0;DLNA.ORG_FLAGS=01700000000000000000000000000000
[New I/O server worker #2-1] DEBUG 19:56:24.626 Sent to socket: Server: Mac_OS_X-x86_64-10.5.7, UPnP/1.0, PMS/1.20
[New I/O server worker #2-2] DEBUG 19:56:24.637 Opened handler on socket /192.168.1.24:1639 // Samsung Wiselink
[New I/O server worker #2-2] DEBUG 19:56:24.637 Handler infos: HTTP/1.0 : GET : get/0$1$0$0$0/01+Mulder+And+Scully.m4a
[New I/O server worker #2-2] DEBUG 19:56:24.637 Received on socket: getcontentFeatures.dlna.org: 1
[New I/O server worker #2-2] DEBUG 19:56:24.637 Received on socket: getMediaInfo.sec: 1
[New I/O server worker #2-2] DEBUG 19:56:24.637 Received on socket: Host: 192.168.1.99:5001
[New I/O server worker #2-2] DEBUG 19:56:24.637 Received on socket: Range: bytes=0-
[New I/O server worker #2-2] DEBUG 19:56:24.637 Received on socket: transferMode.dlna.org: Streaming
[New I/O server worker #2-2] INFO  19:56:24.637 HTTP: get/0$1$0$0$0/01+Mulder+And+Scully.m4a / 0-100000000000
[New I/O server worker #2-2] DEBUG 19:56:24.637 Searching for objectId: 0$1$0$0$0 with children option: false
[New I/O server worker #2-2] DEBUG 19:56:24.638 Asked stream chunk [0-100000000000] timeseek: 0.0 of 01 Mulder And Scully.m4a and player MPlayer Audio
[New I/O server worker #2-2] DEBUG 19:56:24.638 Ready to Stop: false
[New I/O server worker #2-2] DEBUG 19:56:24.639 Ready to Stop: true
[New I/O server worker #2-2] DEBUG 19:56:24.640 Sent to socket: Connection: keep-alive
[New I/O server worker #2-2] DEBUG 19:56:24.640 Sent to socket: Content-Range: bytes 0-99999999999/100000000000
[New I/O server worker #2-2] DEBUG 19:56:24.640 Sent to socket: Content-Type: audio/mpeg
[New I/O server worker #2-2] DEBUG 19:56:24.640 Sent to socket: ContentFeatures.DLNA.ORG: DLNA.ORG_PN=MP3;DLNA.ORG_OP=01;DLNA.ORG_CI=0;DLNA.ORG_FLAGS=01700000000000000000000000000000
[New I/O server worker #2-2] DEBUG 19:56:24.640 Sent to socket: Server: Mac_OS_X-x86_64-10.5.7, UPnP/1.0, PMS/1.20
[New I/O server worker #2-2] DEBUG 19:56:24.640 Sent to socket: TransferMode.DLNA.ORG: Streaming
[New I/O server worker #2-1] DEBUG 19:56:24.653 Opened handler on socket /192.168.1.24:4431 // Samsung Wiselink
[New I/O server worker #2-1] DEBUG 19:56:24.653 Handler infos: HTTP/1.0 : HEAD : get/0$1$0$0$0/01+Mulder+And+Scully.m4a
[New I/O server worker #2-1] DEBUG 19:56:24.653 Received on socket: getcontentFeatures.dlna.org: 1
[New I/O server worker #2-1] DEBUG 19:56:24.653 Received on socket: Host: 192.168.1.99:5001
[New I/O server worker #2-1] INFO  19:56:24.653 HTTP: get/0$1$0$0$0/01+Mulder+And+Scully.m4a / 0-0
[New I/O server worker #2-1] DEBUG 19:56:24.653 Searching for objectId: 0$1$0$0$0 with children option: false
[New I/O server worker #2-1] DEBUG 19:56:24.653 Asked stream chunk [0-0] timeseek: 0.0 of 01 Mulder And Scully.m4a and player MPlayer Audio
[New I/O server worker #2-1] DEBUG 19:56:24.653 Ready to Stop: false
[New I/O server worker #2-1] DEBUG 19:56:24.654 Ready to Stop: true
[New I/O server worker #2-1] DEBUG 19:56:24.654 Sent to socket: Connection: keep-alive
[New I/O server worker #2-1] DEBUG 19:56:24.654 Sent to socket: Content-Type: audio/mpeg
[New I/O server worker #2-1] DEBUG 19:56:24.654 Sent to socket: ContentFeatures.DLNA.ORG: DLNA.ORG_PN=MP3;DLNA.ORG_OP=01;DLNA.ORG_CI=0;DLNA.ORG_FLAGS=01700000000000000000000000000000
[New I/O server worker #2-1] DEBUG 19:56:24.654 Sent to socket: Server: Mac_OS_X-x86_64-10.5.7, UPnP/1.0, PMS/1.20
[New I/O server worker #2-2] DEBUG 19:56:24.666 Opened handler on socket /192.168.1.24:4414 // Samsung Wiselink
[New I/O server worker #2-2] DEBUG 19:56:24.666 Handler infos: HTTP/1.0 : GET : get/0$1$0$0$0/01+Mulder+And+Scully.m4a
[New I/O server worker #2-2] DEBUG 19:56:24.666 Received on socket: getcontentFeatures.dlna.org: 1
[New I/O server worker #2-2] DEBUG 19:56:24.666 Received on socket: getMediaInfo.sec: 1
[New I/O server worker #2-2] DEBUG 19:56:24.666 Received on socket: Host: 192.168.1.99:5001
[New I/O server worker #2-2] DEBUG 19:56:24.666 Received on socket: Range: bytes=0-
[New I/O server worker #2-2] DEBUG 19:56:24.666 Received on socket: transferMode.dlna.org: Streaming
[New I/O server worker #2-2] INFO  19:56:24.666 HTTP: get/0$1$0$0$0/01+Mulder+And+Scully.m4a / 0-100000000000
[New I/O server worker #2-2] DEBUG 19:56:24.666 Searching for objectId: 0$1$0$0$0 with children option: false
[New I/O server worker #2-2] DEBUG 19:56:24.666 Asked stream chunk [0-100000000000] timeseek: 0.0 of 01 Mulder And Scully.m4a and player MPlayer Audio
[New I/O server worker #2-2] DEBUG 19:56:24.666 Ready to Stop: false
[New I/O server worker #2-2] DEBUG 19:56:24.667 Ready to Stop: true
[New I/O server worker #2-2] DEBUG 19:56:24.667 Sent to socket: Connection: keep-alive
[New I/O server worker #2-2] DEBUG 19:56:24.667 Sent to socket: Content-Range: bytes 0-99999999999/100000000000
[New I/O server worker #2-2] DEBUG 19:56:24.667 Sent to socket: Content-Type: audio/mpeg
[New I/O server worker #2-2] DEBUG 19:56:24.667 Sent to socket: ContentFeatures.DLNA.ORG: DLNA.ORG_PN=MP3;DLNA.ORG_OP=01;DLNA.ORG_CI=0;DLNA.ORG_FLAGS=01700000000000000000000000000000
[New I/O server worker #2-2] DEBUG 19:56:24.668 Sent to socket: Server: Mac_OS_X-x86_64-10.5.7, UPnP/1.0, PMS/1.20
[New I/O server worker #2-2] DEBUG 19:56:24.668 Sent to socket: TransferMode.DLNA.ORG: Streaming
[Timer-0] DEBUG 19:56:25.336 Buffered Space: 0 bytes / inputs: 0
[Thread-25] INFO  19:56:27.127 Stopping process: osx/ffmpeg
[Thread-25] DEBUG 19:56:27.127 Killing the Unix process: 29716
[Thread-26] INFO  19:56:27.143 Destroying buffer
[Thread-28] INFO  19:56:27.521 Destroying buffer
[Thread-27] INFO  19:56:27.523 Destroying buffer
[Thread-25] INFO  19:56:27.523 Destroying buffer
[Thread-29] DEBUG 19:56:27.522 kill: 29716: No such process
[Thread-25] INFO  19:56:28.513 Destroying buffer
[New I/O server worker #2-1] DEBUG 19:56:30.294 Opened handler on socket /192.168.1.24:2602 // Samsung Wiselink
[New I/O server worker #2-1] DEBUG 19:56:30.294 Handler infos: HTTP/1.0 : HEAD : get/0$1$0$0$1/02+Game+On.m4a
[New I/O server worker #2-1] DEBUG 19:56:30.294 Received on socket: getcontentFeatures.dlna.org: 1
[New I/O server worker #2-1] DEBUG 19:56:30.294 Received on socket: Host: 192.168.1.99:5001
[New I/O server worker #2-1] INFO  19:56:30.294 HTTP: get/0$1$0$0$1/02+Game+On.m4a / 0-0
[New I/O server worker #2-1] DEBUG 19:56:30.294 Searching for objectId: 0$1$0$0$1 with children option: false
[New I/O server worker #2-1] DEBUG 19:56:30.294 Asked stream chunk [0-0] timeseek: 0.0 of 02 Game On.m4a and player MPlayer Audio
[New I/O server worker #2-1] TRACE 19:56:30.294 Starting transcode/remux of 02 Game On.m4a
[New I/O server worker #2-1] DEBUG 19:56:30.296 Searching an audio track with lang: fre
[New I/O server worker #2-1] DEBUG 19:56:30.296 Searching an audio track with lang: jpn
[New I/O server worker #2-1] DEBUG 19:56:30.296 Searching an audio track with lang: ger
[New I/O server worker #2-1] DEBUG 19:56:30.296 Searching an audio track with lang: eng
[New I/O server worker #2-1] DEBUG 19:56:30.296 Choosed a default audio track: Audio: AAC / lang: null / ID: 0
[New I/O server worker #2-1] DEBUG 19:56:30.296 Searching a subtitle track with lang: fre
[New I/O server worker #2-1] DEBUG 19:56:30.296 Searching a subtitle track with lang: eng
[osx/ffmpeg] INFO  19:56:30.297 Starting /Applications/PS3 Media Server.app/Contents/Resources/Java/osx/ffmpeg -sn -sn -sn -sn -sn -sn -i /Users/jonathantrevor/Music/iTunes/iTunes Music/Catatonia/International Velvet/02 Game On.m4a -sn -sn -f mp3 -ab 320000 -muxpreload 0 pipe:
[osx/ffmpeg] INFO  19:56:30.481 Attaching thread: osx/ffmpeg
[Timer-1] DEBUG 19:56:30.481 Buffered Space: 0 bytes / inputs: 0
[Thread-31] DEBUG 19:56:30.482 FFmpeg version SVN-r18717-snapshot, Copyright (c) 2000-2009 Fabrice Bellard, et al.
[Thread-31] DEBUG 19:56:30.482   configuration: --prefix=/Users/robin/Development/mplayerlibs --disable-shared --enable-static --enable-pthreads --enable-gpl
[Thread-31] DEBUG 19:56:30.482   libavutil     50. 3. 0 / 50. 3. 0
[Thread-31] DEBUG 19:56:30.482   libavcodec    52.27. 0 / 52.27. 0
[Thread-31] DEBUG 19:56:30.482   libavformat   52.32. 0 / 52.32. 0
[Thread-31] DEBUG 19:56:30.482   libavdevice   52. 2. 0 / 52. 2. 0
[Thread-31] DEBUG 19:56:30.482   libswscale     0. 7. 1 /  0. 7. 1
[Thread-31] DEBUG 19:56:30.482   built on Apr 30 2009 22:20:59, gcc: 4.0.1 (Apple Inc. build 5493)
[Thread-31] DEBUG 19:56:30.482 Input #0, mov,mp4,m4a,3gp,3g2,mj2, from '/Users/jonathantrevor/Music/iTunes/iTunes Music/Catatonia/International Velvet/02 Game On.m4a':
[Thread-31] DEBUG 19:56:30.482   Duration: 00:02:51.78, start: 0.000000, bitrate: 257 kb/s
[Thread-31] DEBUG 19:56:30.482     Stream #0.0(und): Audio: aac, 44100 Hz, stereo, s16
[Thread-31] DEBUG 19:56:30.482 Output #0, mp3, to 'pipe:':
[Thread-31] DEBUG 19:56:30.482     Stream #0.0(und): Audio: 0x0000, 44100 Hz, stereo, s16, 320 kb/s
[Thread-31] DEBUG 19:56:30.482 Stream mapping:
[Thread-31] DEBUG 19:56:30.482   Stream #0.0 -> #0.0
[Thread-31] DEBUG 19:56:30.482 Unsupported codec for output stream #0.0
[osx/ffmpeg] DEBUG 19:56:30.485 EOF
[osx/ffmpeg] TRACE 19:56:30.485 Process /Applications/PS3 Media Server.app/Contents/Resources/Java/osx/ffmpeg has a return code of 1! Maybe an error occured... check the log file
[New I/O server worker #2-1] DEBUG 19:56:32.299 Ready to Stop: true
[New I/O server worker #2-1] DEBUG 19:56:32.301 Sent to socket: Connection: keep-alive
[New I/O server worker #2-1] DEBUG 19:56:32.301 Sent to socket: Content-Type: audio/mpeg
[New I/O server worker #2-1] DEBUG 19:56:32.301 Sent to socket: ContentFeatures.DLNA.ORG: DLNA.ORG_PN=MP3;DLNA.ORG_OP=01;DLNA.ORG_CI=0;DLNA.ORG_FLAGS=01700000000000000000000000000000
[New I/O server worker #2-1] DEBUG 19:56:32.301 Sent to socket: Server: Mac_OS_X-x86_64-10.5.7, UPnP/1.0, PMS/1.20
[New I/O server worker #2-2] DEBUG 19:56:32.312 Opened handler on socket /192.168.1.24:3969 // Samsung Wiselink
[New I/O server worker #2-2] DEBUG 19:56:32.312 Handler infos: HTTP/1.0 : GET : get/0$1$0$0$1/02+Game+On.m4a
[New I/O server worker #2-2] DEBUG 19:56:32.312 Received on socket: getcontentFeatures.dlna.org: 1
[New I/O server worker #2-2] DEBUG 19:56:32.312 Received on socket: getMediaInfo.sec: 1
[New I/O server worker #2-2] DEBUG 19:56:32.312 Received on socket: Host: 192.168.1.99:5001
[New I/O server worker #2-2] DEBUG 19:56:32.312 Received on socket: Range: bytes=0-
[New I/O server worker #2-2] DEBUG 19:56:32.312 Received on socket: transferMode.dlna.org: Streaming
[New I/O server worker #2-2] INFO  19:56:32.312 HTTP: get/0$1$0$0$1/02+Game+On.m4a / 0-100000000000
[New I/O server worker #2-2] DEBUG 19:56:32.312 Searching for objectId: 0$1$0$0$1 with children option: false
[New I/O server worker #2-2] DEBUG 19:56:32.312 Asked stream chunk [0-100000000000] timeseek: 0.0 of 02 Game On.m4a and player MPlayer Audio
[New I/O server worker #2-2] DEBUG 19:56:32.312 Ready to Stop: false
[New I/O server worker #2-2] DEBUG 19:56:32.314 Ready to Stop: true
[New I/O server worker #2-2] DEBUG 19:56:32.314 Sent to socket: Connection: keep-alive
[New I/O server worker #2-2] DEBUG 19:56:32.314 Sent to socket: Content-Range: bytes 0-99999999999/100000000000
[New I/O server worker #2-2] DEBUG 19:56:32.314 Sent to socket: Content-Type: audio/mpeg
[New I/O server worker #2-2] DEBUG 19:56:32.314 Sent to socket: ContentFeatures.DLNA.ORG: DLNA.ORG_PN=MP3;DLNA.ORG_OP=01;DLNA.ORG_CI=0;DLNA.ORG_FLAGS=01700000000000000000000000000000
[New I/O server worker #2-2] DEBUG 19:56:32.314 Sent to socket: Server: Mac_OS_X-x86_64-10.5.7, UPnP/1.0, PMS/1.20
[New I/O server worker #2-2] DEBUG 19:56:32.314 Sent to socket: TransferMode.DLNA.ORG: Streaming
[New I/O server worker #2-1] DEBUG 19:56:32.327 Opened handler on socket /192.168.1.24:3025 // Samsung Wiselink
[New I/O server worker #2-1] DEBUG 19:56:32.327 Handler infos: HTTP/1.0 : HEAD : get/0$1$0$0$1/02+Game+On.m4a
[New I/O server worker #2-1] DEBUG 19:56:32.327 Received on socket: getcontentFeatures.dlna.org: 1
[New I/O server worker #2-1] DEBUG 19:56:32.327 Received on socket: Host: 192.168.1.99:5001
[New I/O server worker #2-1] INFO  19:56:32.327 HTTP: get/0$1$0$0$1/02+Game+On.m4a / 0-0
[New I/O server worker #2-1] DEBUG 19:56:32.327 Searching for objectId: 0$1$0$0$1 with children option: false
[New I/O server worker #2-1] DEBUG 19:56:32.327 Asked stream chunk [0-0] timeseek: 0.0 of 02 Game On.m4a and player MPlayer Audio
[New I/O server worker #2-1] DEBUG 19:56:32.327 Ready to Stop: false
[New I/O server worker #2-1] DEBUG 19:56:32.328 Ready to Stop: true
[New I/O server worker #2-1] DEBUG 19:56:32.328 Sent to socket: Connection: keep-alive
[New I/O server worker #2-1] DEBUG 19:56:32.328 Sent to socket: Content-Type: audio/mpeg
[New I/O server worker #2-1] DEBUG 19:56:32.328 Sent to socket: ContentFeatures.DLNA.ORG: DLNA.ORG_PN=MP3;DLNA.ORG_OP=01;DLNA.ORG_CI=0;DLNA.ORG_FLAGS=01700000000000000000000000000000
[New I/O server worker #2-1] DEBUG 19:56:32.328 Sent to socket: Server: Mac_OS_X-x86_64-10.5.7, UPnP/1.0, PMS/1.20
[New I/O server worker #2-2] DEBUG 19:56:32.339 Opened handler on socket /192.168.1.24:3224 // Samsung Wiselink
[New I/O server worker #2-2] DEBUG 19:56:32.339 Handler infos: HTTP/1.0 : GET : get/0$1$0$0$1/02+Game+On.m4a
[New I/O server worker #2-2] DEBUG 19:56:32.339 Received on socket: getcontentFeatures.dlna.org: 1
[New I/O server worker #2-2] DEBUG 19:56:32.339 Received on socket: getMediaInfo.sec: 1
[New I/O server worker #2-2] DEBUG 19:56:32.339 Received on socket: Host: 192.168.1.99:5001
[New I/O server worker #2-2] DEBUG 19:56:32.339 Received on socket: Range: bytes=0-
[New I/O server worker #2-2] DEBUG 19:56:32.339 Received on socket: transferMode.dlna.org: Streaming
[New I/O server worker #2-2] INFO  19:56:32.339 HTTP: get/0$1$0$0$1/02+Game+On.m4a / 0-100000000000
[New I/O server worker #2-2] DEBUG 19:56:32.339 Searching for objectId: 0$1$0$0$1 with children option: false
[New I/O server worker #2-2] DEBUG 19:56:32.339 Asked stream chunk [0-100000000000] timeseek: 0.0 of 02 Game On.m4a and player MPlayer Audio
[New I/O server worker #2-2] DEBUG 19:56:32.339 Ready to Stop: false
[New I/O server worker #2-2] DEBUG 19:56:32.340 Ready to Stop: true
[New I/O server worker #2-2] DEBUG 19:56:32.340 Sent to socket: Connection: keep-alive
[New I/O server worker #2-2] DEBUG 19:56:32.340 Sent to socket: Content-Range: bytes 0-99999999999/100000000000
[New I/O server worker #2-2] DEBUG 19:56:32.340 Sent to socket: Content-Type: audio/mpeg
[New I/O server worker #2-2] DEBUG 19:56:32.340 Sent to socket: ContentFeatures.DLNA.ORG: DLNA.ORG_PN=MP3;DLNA.ORG_OP=01;DLNA.ORG_CI=0;DLNA.ORG_FLAGS=01700000000000000000000000000000
[New I/O server worker #2-2] DEBUG 19:56:32.340 Sent to socket: Server: Mac_OS_X-x86_64-10.5.7, UPnP/1.0, PMS/1.20
[New I/O server worker #2-2] DEBUG 19:56:32.340 Sent to socket: TransferMode.DLNA.ORG: Streaming
[Timer-1] DEBUG 19:56:32.481 Buffered Space: 0 bytes / inputs: 0
[Thread-17] DEBUG 19:56:34.443 Receiving a NOTIFY from [192.168.1.24:1025]
[Thread-17] DEBUG 19:56:34.470 Receiving a NOTIFY from [192.168.1.24:1025]
[Timer-1] DEBUG 19:56:34.481 Buffered Space: 0 bytes / inputs: 0
jonathantrevor
 
Posts: 5
Joined: Tue Jul 21, 2009 3:55 am

Re: Can't stream m4a (itunes) to Samsung from OSX

Postby shagrath » Thu Jul 23, 2009 11:40 pm

try again :)
you should see something like ffmpeg ... -acodec mp3 ...
and some errors traces after that
shagrath
Project Lead
 
Posts: 2667
Joined: Wed Jan 14, 2009 1:39 pm

Re: Can't stream m4a (itunes) to Samsung from OSX

Postby jonathantrevor » Fri Jul 24, 2009 3:48 am

I don't. Heres a much bigger dump from the debug.log

Code: Select all
[New I/O server worker #2-1] DEBUG 19:56:15.202 Sent to socket: Content-Length: 1017
[New I/O server worker #2-1] DEBUG 19:56:15.202 Sent to socket: Content-Type: text/xml; charset="utf-8"
[New I/O server worker #2-1] DEBUG 19:56:15.202 Sent to socket: Server: Mac_OS_X-x86_64-10.5.7, UPnP/1.0, PMS/1.20
[New I/O server worker #2-2] DEBUG 19:56:15.212 Opened handler on socket /192.168.1.24:1154 // Samsung Wiselink
[New I/O server worker #2-2] DEBUG 19:56:15.212 Handler infos: HTTP/1.0 : POST : upnp/control/content_directory
[New I/O server worker #2-2] DEBUG 19:56:15.212 Received on socket: CONTENT-LENGTH: 421
[New I/O server worker #2-2] DEBUG 19:56:15.212 Received on socket: CONTENT-TYPE: text/xml;charset="utf-8"
[New I/O server worker #2-2] DEBUG 19:56:15.212 Received on socket: HOST: 192.168.1.99:5001
[New I/O server worker #2-2] DEBUG 19:56:15.212 Received on socket: SOAPACTION: "urn:schemas-upnp-org:service:ContentDirectory:1#Browse"
[New I/O server worker #2-2] DEBUG 19:56:15.212 Received on socket: USER-AGENT: DLNADOC/1.50
[New I/O server worker #2-2] INFO  19:56:15.212 HTTP: upnp/control/content_directory / 0-0
[New I/O server worker #2-2] DEBUG 19:56:15.212 Searching for objectId: 0$1$0 with children option: false
[New I/O server worker #2-2] DEBUG 19:56:15.213 Sent to socket: Content-Length: 990
[New I/O server worker #2-2] DEBUG 19:56:15.213 Sent to socket: Content-Type: text/xml; charset="utf-8"
[New I/O server worker #2-2] DEBUG 19:56:15.213 Sent to socket: Server: Mac_OS_X-x86_64-10.5.7, UPnP/1.0, PMS/1.20
[New I/O server worker #2-1] DEBUG 19:56:15.223 Opened handler on socket /192.168.1.24:1155 // Samsung Wiselink
[New I/O server worker #2-1] DEBUG 19:56:15.224 Handler infos: HTTP/1.0 : POST : upnp/control/content_directory
[New I/O server worker #2-1] DEBUG 19:56:15.224 Received on socket: CONTENT-LENGTH: 629
[New I/O server worker #2-1] DEBUG 19:56:15.224 Received on socket: CONTENT-TYPE: text/xml;charset="utf-8"
[New I/O server worker #2-1] DEBUG 19:56:15.224 Received on socket: HOST: 192.168.1.99:5001
[New I/O server worker #2-1] DEBUG 19:56:15.224 Received on socket: SOAPACTION: "urn:schemas-upnp-org:service:ContentDirectory:1#Browse"
[New I/O server worker #2-1] DEBUG 19:56:15.224 Received on socket: USER-AGENT: DLNADOC/1.50
[New I/O server worker #2-1] INFO  19:56:15.224 HTTP: upnp/control/content_directory / 0-0
[New I/O server worker #2-1] DEBUG 19:56:15.224 Searching for objectId: 0$1$0 with children option: true
[New I/O server worker #2-1] DEBUG 19:56:15.224 End of analysis
[New I/O server worker #2-1] DEBUG 19:56:15.226 Sent to socket: Content-Length: 1017
[New I/O server worker #2-1] DEBUG 19:56:15.226 Sent to socket: Content-Type: text/xml; charset="utf-8"
[New I/O server worker #2-1] DEBUG 19:56:15.226 Sent to socket: Server: Mac_OS_X-x86_64-10.5.7, UPnP/1.0, PMS/1.20
[New I/O server worker #2-2] DEBUG 19:56:17.420 Opened handler on socket /192.168.1.24:1156 // Samsung Wiselink
[New I/O server worker #2-2] DEBUG 19:56:17.420 Handler infos: HTTP/1.0 : POST : upnp/control/content_directory
[New I/O server worker #2-2] DEBUG 19:56:17.420 Received on socket: CONTENT-LENGTH: 421
[New I/O server worker #2-2] DEBUG 19:56:17.420 Received on socket: CONTENT-TYPE: text/xml;charset="utf-8"
[New I/O server worker #2-2] DEBUG 19:56:17.420 Received on socket: HOST: 192.168.1.99:5001
[New I/O server worker #2-2] DEBUG 19:56:17.420 Received on socket: SOAPACTION: "urn:schemas-upnp-org:service:ContentDirectory:1#Browse"
[New I/O server worker #2-2] DEBUG 19:56:17.420 Received on socket: USER-AGENT: DLNADOC/1.50
[New I/O server worker #2-2] INFO  19:56:17.420 HTTP: upnp/control/content_directory / 0-0
[New I/O server worker #2-2] DEBUG 19:56:17.420 Searching for objectId: 0$1$0$0 with children option: true
[New I/O server worker #2-2] DEBUG 19:56:17.421 Search extension for /Users/jonathantrevor/Music/iTunes/iTunes Music/Catatonia/International Velvet/01 Mulder And Scully.m4a
[New I/O server worker #2-2] DEBUG 19:56:17.421 Found 1! net.pms.formats.M4A
[New I/O server worker #2-2] INFO  19:56:17.421 Adding 01 Mulder And Scully.m4a / class: net.pms.dlna.RealFile
[New I/O server worker #2-2] INFO  19:56:17.421 Switching 01 Mulder And Scully.m4a to player: MPlayer Audio
[New I/O server worker #2-2] DEBUG 19:56:17.421 Search extension for /Users/jonathantrevor/Music/iTunes/iTunes Music/Catatonia/International Velvet/02 Game On.m4a
[New I/O server worker #2-2] DEBUG 19:56:17.421 Found 1! net.pms.formats.M4A
[New I/O server worker #2-2] INFO  19:56:17.421 Adding 02 Game On.m4a / class: net.pms.dlna.RealFile
[New I/O server worker #2-2] INFO  19:56:17.421 Switching 02 Game On.m4a to player: MPlayer Audio
[New I/O server worker #2-2] DEBUG 19:56:17.421 Search extension for /Users/jonathantrevor/Music/iTunes/iTunes Music/Catatonia/International Velvet/03 I Am The Mob.m4a
[New I/O server worker #2-2] DEBUG 19:56:17.421 Found 1! net.pms.formats.M4A
[New I/O server worker #2-2] INFO  19:56:17.421 Adding 03 I Am The Mob.m4a / class: net.pms.dlna.RealFile
[New I/O server worker #2-2] INFO  19:56:17.421 Switching 03 I Am The Mob.m4a to player: MPlayer Audio
[New I/O server worker #2-2] DEBUG 19:56:17.421 Search extension for /Users/jonathantrevor/Music/iTunes/iTunes Music/Catatonia/International Velvet/04 Road Rage.m4a
[New I/O server worker #2-2] DEBUG 19:56:17.421 Found 1! net.pms.formats.M4A
[New I/O server worker #2-2] INFO  19:56:17.422 Adding 04 Road Rage.m4a / class: net.pms.dlna.RealFile
[New I/O server worker #2-2] INFO  19:56:17.422 Switching 04 Road Rage.m4a to player: MPlayer Audio
[New I/O server worker #2-2] DEBUG 19:56:17.422 Search extension for /Users/jonathantrevor/Music/iTunes/iTunes Music/Catatonia/International Velvet/05 Johnny Come Lately.m4a
[New I/O server worker #2-2] DEBUG 19:56:17.422 Found 1! net.pms.formats.M4A
[New I/O server worker #2-2] INFO  19:56:17.422 Adding 05 Johnny Come Lately.m4a / class: net.pms.dlna.RealFile
[New I/O server worker #2-2] INFO  19:56:17.422 Switching 05 Johnny Come Lately.m4a to player: MPlayer Audio
[New I/O server worker #2-2] DEBUG 19:56:17.422 Search extension for /Users/jonathantrevor/Music/iTunes/iTunes Music/Catatonia/International Velvet/06 Goldfish And Paracetamol.m4a
[New I/O server worker #2-2] DEBUG 19:56:17.422 Found 1! net.pms.formats.M4A
[New I/O server worker #2-2] INFO  19:56:17.422 Adding 06 Goldfish And Paracetamol.m4a / class: net.pms.dlna.RealFile
[New I/O server worker #2-2] INFO  19:56:17.422 Switching 06 Goldfish And Paracetamol.m4a to player: MPlayer Audio
[New I/O server worker #2-2] DEBUG 19:56:17.422 Search extension for /Users/jonathantrevor/Music/iTunes/iTunes Music/Catatonia/International Velvet/07 International Velvet.m4a
[New I/O server worker #2-2] DEBUG 19:56:17.422 Found 1! net.pms.formats.M4A
[New I/O server worker #2-2] INFO  19:56:17.422 Adding 07 International Velvet.m4a / class: net.pms.dlna.RealFile
[New I/O server worker #2-2] INFO  19:56:17.422 Switching 07 International Velvet.m4a to player: MPlayer Audio
[New I/O server worker #2-2] DEBUG 19:56:17.422 Search extension for /Users/jonathantrevor/Music/iTunes/iTunes Music/Catatonia/International Velvet/08 Why I Can't Stand One Night Stands.m4a
[New I/O server worker #2-2] DEBUG 19:56:17.422 Found 1! net.pms.formats.M4A
[New I/O server worker #2-2] INFO  19:56:17.423 Adding 08 Why I Can't Stand One Night Stands.m4a / class: net.pms.dlna.RealFile
[New I/O server worker #2-2] INFO  19:56:17.423 Switching 08 Why I Can't Stand One Night Stands.m4a to player: MPlayer Audio
[New I/O server worker #2-2] DEBUG 19:56:17.423 Search extension for /Users/jonathantrevor/Music/iTunes/iTunes Music/Catatonia/International Velvet/09 Part Of The Furniture.m4a
[New I/O server worker #2-2] DEBUG 19:56:17.423 Found 1! net.pms.formats.M4A
[New I/O server worker #2-2] INFO  19:56:17.423 Adding 09 Part Of The Furniture.m4a / class: net.pms.dlna.RealFile
[New I/O server worker #2-2] INFO  19:56:17.423 Switching 09 Part Of The Furniture.m4a to player: MPlayer Audio
[New I/O server worker #2-2] DEBUG 19:56:17.423 Search extension for /Users/jonathantrevor/Music/iTunes/iTunes Music/Catatonia/International Velvet/10 Don't Need The Sunshine.m4a
[New I/O server worker #2-2] DEBUG 19:56:17.423 Found 1! net.pms.formats.M4A
[New I/O server worker #2-2] INFO  19:56:17.423 Adding 10 Don't Need The Sunshine.m4a / class: net.pms.dlna.RealFile
[New I/O server worker #2-2] INFO  19:56:17.423 Switching 10 Don't Need The Sunshine.m4a to player: MPlayer Audio
[New I/O server worker #2-2] DEBUG 19:56:17.423 Search extension for /Users/jonathantrevor/Music/iTunes/iTunes Music/Catatonia/International Velvet/11 Strange Glue.m4a
[New I/O server worker #2-2] DEBUG 19:56:17.423 Found 1! net.pms.formats.M4A
[New I/O server worker #2-2] INFO  19:56:17.423 Adding 11 Strange Glue.m4a / class: net.pms.dlna.RealFile
[New I/O server worker #2-2] INFO  19:56:17.424 Switching 11 Strange Glue.m4a to player: MPlayer Audio
[New I/O server worker #2-2] DEBUG 19:56:17.424 Search extension for /Users/jonathantrevor/Music/iTunes/iTunes Music/Catatonia/International Velvet/12 My Selfish Gene.m4a
[New I/O server worker #2-2] DEBUG 19:56:17.424 Found 1! net.pms.formats.M4A
[New I/O server worker #2-2] INFO  19:56:17.424 Adding 12 My Selfish Gene.m4a / class: net.pms.dlna.RealFile
[New I/O server worker #2-2] INFO  19:56:17.424 Switching 12 My Selfish Gene.m4a to player: MPlayer Audio
[New I/O server worker #2-2] DEBUG 19:56:17.424 Setting DLNA id 0$1$0$0$0 to 01 Mulder And Scully.m4a
[New I/O server worker #2-2] DEBUG 19:56:17.424 Setting DLNA id 0$1$0$0$1 to 02 Game On.m4a
[New I/O server worker #2-2] DEBUG 19:56:17.424 Setting DLNA id 0$1$0$0$2 to 03 I Am The Mob.m4a
[New I/O server worker #2-2] DEBUG 19:56:17.424 Setting DLNA id 0$1$0$0$3 to 04 Road Rage.m4a
[New I/O server worker #2-2] DEBUG 19:56:17.424 Setting DLNA id 0$1$0$0$4 to 05 Johnny Come Lately.m4a
[New I/O server worker #2-2] DEBUG 19:56:17.424 Setting DLNA id 0$1$0$0$5 to 06 Goldfish And Paracetamol.m4a
[New I/O server worker #2-2] DEBUG 19:56:17.424 Setting DLNA id 0$1$0$0$6 to 07 International Velvet.m4a
[New I/O server worker #2-2] DEBUG 19:56:17.424 Setting DLNA id 0$1$0$0$7 to 08 Why I Can't Stand One Night Stands.m4a
[New I/O server worker #2-2] DEBUG 19:56:17.424 Setting DLNA id 0$1$0$0$8 to 09 Part Of The Furniture.m4a
[New I/O server worker #2-2] DEBUG 19:56:17.424 Setting DLNA id 0$1$0$0$9 to 10 Don't Need The Sunshine.m4a
[New I/O server worker #2-2] DEBUG 19:56:17.424 Setting DLNA id 0$1$0$0$10 to 11 Strange Glue.m4a
[New I/O server worker #2-2] DEBUG 19:56:17.424 Setting DLNA id 0$1$0$0$11 to 12 My Selfish Gene.m4a
[pool-27-thread-1] INFO  19:56:17.462 Using database URL: jdbc:h2:database/medias
[pool-27-thread-1] TRACE 19:56:17.462 Using database located at : /Applications/PS3 Media Server.app/Contents/Resources/Java/database
[Thread-17] DEBUG 19:56:17.497 Receiving a NOTIFY from [192.168.1.111:2020]
[Thread-17] DEBUG 19:56:17.598 Receiving a NOTIFY from [192.168.1.111:2020]
[pool-27-thread-1] INFO  19:56:18.305 Database not created or corrupted
[pool-27-thread-1] INFO  19:56:18.306 Database will be (re)initialized
[pool-27-thread-1] INFO  19:56:18.343 Database initialized
[pool-27-thread-1] DEBUG 19:56:18.400 >>>
[pool-27-thread-1] DEBUG 19:56:18.498 <<<
[pool-27-thread-1] INFO  19:56:18.559 error in parsing unimportant metadata: For input string: "1/12"
[pool-27-thread-1] DEBUG 19:56:18.560 Media info of : /Users/jonathantrevor/Music/iTunes/iTunes Music/Catatonia/International Velvet/01 Mulder And Scully.m4a / mimeType: audio/mp4 / container: null / bitrate: 256 / size: 8078008 / codecV: null / duration: 00:04:11.00 / width: 0 / height: 0 / frameRate: null / thumb size : 0
   audio: id=0 / lang: null / codec: aac / sf:44100
[New I/O server worker #2-2] DEBUG 19:56:18.571 End of analysis
[New I/O server worker #2-2] INFO  19:56:18.574 Calculated size: 44276400
[New I/O server worker #2-2] DEBUG 19:56:18.575 Sent to socket: Content-Length: 1296
[New I/O server worker #2-2] DEBUG 19:56:18.575 Sent to socket: Content-Type: text/xml; charset="utf-8"
[New I/O server worker #2-2] DEBUG 19:56:18.575 Sent to socket: Server: Mac_OS_X-x86_64-10.5.7, UPnP/1.0, PMS/1.20
[New I/O server worker #2-1] DEBUG 19:56:18.586 Opened handler on socket /192.168.1.24:1157 // Samsung Wiselink
[New I/O server worker #2-1] DEBUG 19:56:18.587 Handler infos: HTTP/1.0 : POST : upnp/control/content_directory
[New I/O server worker #2-1] DEBUG 19:56:18.587 Received on socket: CONTENT-LENGTH: 423
[New I/O server worker #2-1] DEBUG 19:56:18.587 Received on socket: CONTENT-TYPE: text/xml;charset="utf-8"
[New I/O server worker #2-1] DEBUG 19:56:18.587 Received on socket: HOST: 192.168.1.99:5001
[New I/O server worker #2-1] DEBUG 19:56:18.587 Received on socket: SOAPACTION: "urn:schemas-upnp-org:service:ContentDirectory:1#Browse"
[New I/O server worker #2-1] DEBUG 19:56:18.587 Received on socket: USER-AGENT: DLNADOC/1.50
[New I/O server worker #2-1] INFO  19:56:18.587 HTTP: upnp/control/content_directory / 0-0
[New I/O server worker #2-1] DEBUG 19:56:18.587 Searching for objectId: 0$1$0$0 with children option: false
[New I/O server worker #2-1] DEBUG 19:56:18.588 Sent to socket: Content-Length: 1018
[New I/O server worker #2-1] DEBUG 19:56:18.588 Sent to socket: Content-Type: text/xml; charset="utf-8"
[New I/O server worker #2-1] DEBUG 19:56:18.588 Sent to socket: Server: Mac_OS_X-x86_64-10.5.7, UPnP/1.0, PMS/1.20
[New I/O server worker #2-2] DEBUG 19:56:18.597 Opened handler on socket /192.168.1.24:1158 // Samsung Wiselink
[New I/O server worker #2-2] DEBUG 19:56:18.597 Handler infos: HTTP/1.0 : POST : upnp/control/content_directory
[New I/O server worker #2-2] DEBUG 19:56:18.597 Received on socket: CONTENT-LENGTH: 631
[New I/O server worker #2-2] DEBUG 19:56:18.597 Received on socket: CONTENT-TYPE: text/xml;charset="utf-8"
[New I/O server worker #2-2] DEBUG 19:56:18.597 Received on socket: HOST: 192.168.1.99:5001
[New I/O server worker #2-2] DEBUG 19:56:18.597 Received on socket: SOAPACTION: "urn:schemas-upnp-org:service:ContentDirectory:1#Browse"
[New I/O server worker #2-2] DEBUG 19:56:18.597 Received on socket: USER-AGENT: DLNADOC/1.50
[New I/O server worker #2-2] INFO  19:56:18.598 HTTP: upnp/control/content_directory / 0-0
[New I/O server worker #2-2] DEBUG 19:56:18.598 Searching for objectId: 0$1$0$0 with children option: true
[pool-28-thread-3] DEBUG 19:56:18.604 >>>
[pool-28-thread-2] DEBUG 19:56:18.605 >>>
[pool-28-thread-2] DEBUG 19:56:18.607 <<<
[pool-28-thread-2] INFO  19:56:18.608 error in parsing unimportant metadata: For input string: "2/12"
[pool-28-thread-3] DEBUG 19:56:18.608 <<<
[pool-28-thread-2] DEBUG 19:56:18.608 Media info of : /Users/jonathantrevor/Music/iTunes/iTunes Music/Catatonia/International Velvet/02 Game On.m4a / mimeType: audio/mp4 / container: null / bitrate: 256 / size: 5535130 / codecV: null / duration: 00:02:51.00 / width: 0 / height: 0 / frameRate: null / thumb size : 0
   audio: id=0 / lang: null / codec: aac / sf:44100
[pool-28-thread-3] INFO  19:56:18.609 error in parsing unimportant metadata: For input string: "3/12"
[pool-28-thread-1] DEBUG 19:56:18.613 Media info of : /Users/jonathantrevor/Music/iTunes/iTunes Music/Catatonia/International Velvet/01 Mulder And Scully.m4a / mimeType: audio/mp4 / container: null / bitrate: 256 / size: 8078008 / codecV: null / duration: 00:04:11.00 / width: 0 / height: 0 / frameRate: null / thumb size : 0
   audio: id=0 / lang: null / codec: aac / sf:44100
[pool-28-thread-3] DEBUG 19:56:18.613 Media info of : /Users/jonathantrevor/Music/iTunes/iTunes Music/Catatonia/International Velvet/03 I Am The Mob.m4a / mimeType: audio/mp4 / container: null / bitrate: 256 / size: 6081528 / codecV: null / duration: 00:03:09.00 / width: 0 / height: 0 / frameRate: null / thumb size : 0
   audio: id=0 / lang: null / codec: aac / sf:44100
[pool-28-thread-1] DEBUG 19:56:18.617 >>>
[pool-28-thread-1] DEBUG 19:56:18.621 <<<
[pool-28-thread-1] INFO  19:56:18.622 error in parsing unimportant metadata: For input string: "4/12"
[pool-28-thread-2] DEBUG 19:56:18.623 >>>
[pool-28-thread-1] DEBUG 19:56:18.651 Media info of : /Users/jonathantrevor/Music/iTunes/iTunes Music/Catatonia/International Velvet/04 Road Rage.m4a / mimeType: audio/mp4 / container: null / bitrate: 256 / size: 9953522 / codecV: null / duration: 00:05:09.00 / width: 0 / height: 0 / frameRate: null / thumb size : 0
   audio: id=0 / lang: null / codec: aac / sf:44100
[pool-28-thread-3] DEBUG 19:56:18.654 >>>
[pool-28-thread-1] DEBUG 19:56:18.655 >>>
[pool-28-thread-2] DEBUG 19:56:18.657 <<<
[pool-28-thread-2] INFO  19:56:18.657 error in parsing unimportant metadata: For input string: "5/12"
[pool-28-thread-2] DEBUG 19:56:18.658 Media info of : /Users/jonathantrevor/Music/iTunes/iTunes Music/Catatonia/International Velvet/05 Johnny Come Lately.m4a / mimeType: audio/mp4 / container: null / bitrate: 256 / size: 8903374 / codecV: null / duration: 00:04:36.00 / width: 0 / height: 0 / frameRate: null / thumb size : 0
   audio: id=0 / lang: null / codec: aac / sf:44100
[pool-28-thread-1] DEBUG 19:56:18.659 <<<
[pool-28-thread-1] INFO  19:56:18.659 error in parsing unimportant metadata: For input string: "7/12"
[pool-28-thread-1] DEBUG 19:56:18.660 Media info of : /Users/jonathantrevor/Music/iTunes/iTunes Music/Catatonia/International Velvet/07 International Velvet.m4a / mimeType: audio/mp4 / container: null / bitrate: 256 / size: 8463873 / codecV: null / duration: 00:04:23.00 / width: 0 / height: 0 / frameRate: null / thumb size : 0
   audio: id=0 / lang: null / codec: aac / sf:44100
[pool-28-thread-2] DEBUG 19:56:18.663 >>>
[pool-28-thread-1] DEBUG 19:56:18.664 >>>
[pool-28-thread-1] DEBUG 19:56:18.667 <<<
[pool-28-thread-1] INFO  19:56:18.667 error in parsing unimportant metadata: For input string: "9/12"
[pool-28-thread-1] DEBUG 19:56:18.668 Media info of : /Users/jonathantrevor/Music/iTunes/iTunes Music/Catatonia/International Velvet/09 Part Of The Furniture.m4a / mimeType: audio/mp4 / container: null / bitrate: 256 / size: 7997402 / codecV: null / duration: 00:04:08.00 / width: 0 / height: 0 / frameRate: null / thumb size : 0
   audio: id=0 / lang: null / codec: aac / sf:44100
[pool-28-thread-1] DEBUG 19:56:18.673 >>>
[pool-28-thread-2] DEBUG 19:56:18.695 <<<
[pool-28-thread-1] DEBUG 19:56:18.695 <<<
[pool-28-thread-2] INFO  19:56:18.695 error in parsing unimportant metadata: For input string: "8/12"
[pool-28-thread-1] INFO  19:56:18.695 error in parsing unimportant metadata: For input string: "10/12"
[pool-28-thread-3] DEBUG 19:56:18.700 <<<
[pool-28-thread-3] INFO  19:56:18.705 error in parsing unimportant metadata: For input string: "6/12"
[pool-28-thread-3] DEBUG 19:56:18.707 Media info of : /Users/jonathantrevor/Music/iTunes/iTunes Music/Catatonia/International Velvet/06 Goldfish And Paracetamol.m4a / mimeType: audio/mp4 / container: null / bitrate: 256 / size: 7314755 / codecV: null / duration: 00:03:50.00 / width: 0 / height: 0 / frameRate: null / thumb size : 0
   audio: id=0 / lang: null / codec: aac / sf:44100
[pool-28-thread-2] DEBUG 19:56:18.708 Media info of : /Users/jonathantrevor/Music/iTunes/iTunes Music/Catatonia/International Velvet/08 Why I Can't Stand One Night Stands.m4a / mimeType: audio/mp4 / container: null / bitrate: 256 / size: 5125597 / codecV: null / duration: 00:02:40.00 / width: 0 / height: 0 / frameRate: null / thumb size : 0
   audio: id=0 / lang: null / codec: aac / sf:44100
[pool-28-thread-1] DEBUG 19:56:18.709 Media info of : /Users/jonathantrevor/Music/iTunes/iTunes Music/Catatonia/International Velvet/10 Don't Need The Sunshine.m4a / mimeType: audio/mp4 / container: null / bitrate: 256 / size: 7383036 / codecV: null / duration: 00:03:49.00 / width: 0 / height: 0 / frameRate: null / thumb size : 0
   audio: id=0 / lang: null / codec: aac / sf:44100
[pool-28-thread-3] DEBUG 19:56:18.711 >>>
[pool-28-thread-2] DEBUG 19:56:18.715 >>>
[pool-28-thread-3] DEBUG 19:56:18.715 <<<
[pool-28-thread-3] INFO  19:56:18.716 error in parsing unimportant metadata: For input string: "11/12"
[pool-28-thread-3] DEBUG 19:56:18.716 Media info of : /Users/jonathantrevor/Music/iTunes/iTunes Music/Catatonia/International Velvet/11 Strange Glue.m4a / mimeType: audio/mp4 / container: null / bitrate: 256 / size: 7233284 / codecV: null / duration: 00:03:44.00 / width: 0 / height: 0 / frameRate: null / thumb size : 0
   audio: id=0 / lang: null / codec: aac / sf:44100
[pool-28-thread-2] DEBUG 19:56:18.718 <<<
[pool-28-thread-2] INFO  19:56:18.718 error in parsing unimportant metadata: For input string: "12/12"
[pool-28-thread-2] DEBUG 19:56:18.719 Media info of : /Users/jonathantrevor/Music/iTunes/iTunes Music/Catatonia/International Velvet/12 My Selfish Gene.m4a / mimeType: audio/mp4 / container: null / bitrate: 256 / size: 4678798 / codecV: null / duration: 00:02:26.00 / width: 0 / height: 0 / frameRate: null / thumb size : 0
   audio: id=0 / lang: null / codec: aac / sf:44100
[New I/O server worker #2-2] DEBUG 19:56:18.721 End of analysis
[New I/O server worker #2-2] INFO  19:56:18.721 Calculated size: 44276400
[New I/O server worker #2-2] INFO  19:56:18.722 Calculated size: 30164400
[New I/O server worker #2-2] INFO  19:56:18.722 Calculated size: 33339600
[New I/O server worker #2-2] INFO  19:56:18.723 Calculated size: 54507600
[New I/O server worker #2-2] INFO  19:56:18.723 Calculated size: 48686400
[New I/O server worker #2-2] INFO  19:56:18.723 Calculated size: 40572000
[New I/O server worker #2-2] INFO  19:56:18.724 Calculated size: 46393200
[New I/O server worker #2-2] INFO  19:56:18.724 Calculated size: 28224000
[New I/O server worker #2-2] INFO  19:56:18.725 Calculated size: 43747200
[New I/O server worker #2-2] INFO  19:56:18.725 Calculated size: 40395600
[New I/O server worker #2-2] INFO  19:56:18.726 Calculated size: 39513600
[New I/O server worker #2-2] INFO  19:56:18.727 Calculated size: 25754400
[New I/O server worker #2-2] DEBUG 19:56:18.728 Sent to socket: Content-Length: 9017
[New I/O server worker #2-2] DEBUG 19:56:18.728 Sent to socket: Content-Type: text/xml; charset="utf-8"
[New I/O server worker #2-2] DEBUG 19:56:18.728 Sent to socket: Server: Mac_OS_X-x86_64-10.5.7, UPnP/1.0, PMS/1.20
[New I/O server worker #2-1] DEBUG 19:56:22.611 Opened handler on socket /192.168.1.24:4462 // Samsung Wiselink
[New I/O server worker #2-1] DEBUG 19:56:22.611 Handler infos: HTTP/1.0 : HEAD : get/0$1$0$0$0/01+Mulder+And+Scully.m4a
[New I/O server worker #2-1] DEBUG 19:56:22.611 Received on socket: getcontentFeatures.dlna.org: 1
[New I/O server worker #2-1] DEBUG 19:56:22.611 Received on socket: Host: 192.168.1.99:5001
[New I/O server worker #2-1] INFO  19:56:22.611 HTTP: get/0$1$0$0$0/01+Mulder+And+Scully.m4a / 0-0
[New I/O server worker #2-1] DEBUG 19:56:22.612 Searching for objectId: 0$1$0$0$0 with children option: false
[New I/O server worker #2-1] DEBUG 19:56:22.612 Asked stream chunk [0-0] timeseek: 0.0 of 01 Mulder And Scully.m4a and player MPlayer Audio
[New I/O server worker #2-1] TRACE 19:56:22.612 Starting transcode/remux of 01 Mulder And Scully.m4a
[New I/O server worker #2-1] DEBUG 19:56:22.613 Searching an audio track with lang: fre
[New I/O server worker #2-1] DEBUG 19:56:22.622 Searching an audio track with lang: jpn
[New I/O server worker #2-1] DEBUG 19:56:22.622 Searching an audio track with lang: ger
[New I/O server worker #2-1] DEBUG 19:56:22.622 Searching an audio track with lang: eng
[New I/O server worker #2-1] DEBUG 19:56:22.622 Choosed a default audio track: Audio: AAC / lang: null / ID: 0
[New I/O server worker #2-1] DEBUG 19:56:22.623 Searching a subtitle track with lang: fre
[New I/O server worker #2-1] DEBUG 19:56:22.623 Searching a subtitle track with lang: eng
[osx/ffmpeg] INFO  19:56:22.623 Starting /Applications/PS3 Media Server.app/Contents/Resources/Java/osx/ffmpeg -sn -sn -sn -sn -sn -sn -i /Users/jonathantrevor/Music/iTunes/iTunes Music/Catatonia/International Velvet/01 Mulder And Scully.m4a -sn -sn -f mp3 -ab 320000 -muxpreload 0 pipe:
[osx/ffmpeg] INFO  19:56:23.336 Attaching thread: osx/ffmpeg
[Timer-0] DEBUG 19:56:23.336 Buffered Space: 0 bytes / inputs: 0
[Thread-22] DEBUG 19:56:23.337 FFmpeg version SVN-r18717-snapshot, Copyright (c) 2000-2009 Fabrice Bellard, et al.
[Thread-22] DEBUG 19:56:23.337   configuration: --prefix=/Users/robin/Development/mplayerlibs --disable-shared --enable-static --enable-pthreads --enable-gpl
[Thread-22] DEBUG 19:56:23.337   libavutil     50. 3. 0 / 50. 3. 0
[Thread-22] DEBUG 19:56:23.337   libavcodec    52.27. 0 / 52.27. 0
[Thread-22] DEBUG 19:56:23.337   libavformat   52.32. 0 / 52.32. 0
[Thread-22] DEBUG 19:56:23.337   libavdevice   52. 2. 0 / 52. 2. 0
[Thread-22] DEBUG 19:56:23.337   libswscale     0. 7. 1 /  0. 7. 1
[Thread-22] DEBUG 19:56:23.337   built on Apr 30 2009 22:20:59, gcc: 4.0.1 (Apple Inc. build 5493)
[Thread-22] DEBUG 19:56:23.337 Input #0, mov,mp4,m4a,3gp,3g2,mj2, from '/Users/jonathantrevor/Music/iTunes/iTunes Music/Catatonia/International Velvet/01 Mulder And Scully.m4a':
[Thread-22] DEBUG 19:56:23.337   Duration: 00:04:11.51, start: 0.000000, bitrate: 256 kb/s
[Thread-22] DEBUG 19:56:23.337     Stream #0.0(und): Audio: aac, 44100 Hz, stereo, s16
[Thread-22] DEBUG 19:56:23.337 Output #0, mp3, to 'pipe:':
[Thread-22] DEBUG 19:56:23.337     Stream #0.0(und): Audio: 0x0000, 44100 Hz, stereo, s16, 320 kb/s
[Thread-22] DEBUG 19:56:23.337 Stream mapping:
[Thread-22] DEBUG 19:56:23.337   Stream #0.0 -> #0.0
[Thread-22] DEBUG 19:56:23.337 Unsupported codec for output stream #0.0
[osx/ffmpeg] DEBUG 19:56:23.338 EOF
[osx/ffmpeg] TRACE 19:56:23.338 Process /Applications/PS3 Media Server.app/Contents/Resources/Java/osx/ffmpeg has a return code of 1! Maybe an error occured... check the log file
[New I/O server worker #2-1] DEBUG 19:56:24.625 Ready to Stop: true
[New I/O server worker #2-1] DEBUG 19:56:24.626 Sent to socket: Connection: keep-alive
[New I/O server worker #2-1] DEBUG 19:56:24.626 Sent to socket: Content-Type: audio/mpeg
[New I/O server worker #2-1] DEBUG 19:56:24.626 Sent to socket: ContentFeatures.DLNA.ORG: DLNA.ORG_PN=MP3;DLNA.ORG_OP=01;DLNA.ORG_CI=0;DLNA.ORG_FLAGS=01700000000000000000000000000000
[New I/O server worker #2-1] DEBUG 19:56:24.626 Sent to socket: Server: Mac_OS_X-x86_64-10.5.7, UPnP/1.0, PMS/1.20
[New I/O server worker #2-2] DEBUG 19:56:24.637 Opened handler on socket /192.168.1.24:1639 // Samsung Wiselink
[New I/O server worker #2-2] DEBUG 19:56:24.637 Handler infos: HTTP/1.0 : GET : get/0$1$0$0$0/01+Mulder+And+Scully.m4a
[New I/O server worker #2-2] DEBUG 19:56:24.637 Received on socket: getcontentFeatures.dlna.org: 1
[New I/O server worker #2-2] DEBUG 19:56:24.637 Received on socket: getMediaInfo.sec: 1
[New I/O server worker #2-2] DEBUG 19:56:24.637 Received on socket: Host: 192.168.1.99:5001
[New I/O server worker #2-2] DEBUG 19:56:24.637 Received on socket: Range: bytes=0-
[New I/O server worker #2-2] DEBUG 19:56:24.637 Received on socket: transferMode.dlna.org: Streaming
[New I/O server worker #2-2] INFO  19:56:24.637 HTTP: get/0$1$0$0$0/01+Mulder+And+Scully.m4a / 0-100000000000
[New I/O server worker #2-2] DEBUG 19:56:24.637 Searching for objectId: 0$1$0$0$0 with children option: false
[New I/O server worker #2-2] DEBUG 19:56:24.638 Asked stream chunk [0-100000000000] timeseek: 0.0 of 01 Mulder And Scully.m4a and player MPlayer Audio
[New I/O server worker #2-2] DEBUG 19:56:24.638 Ready to Stop: false
[New I/O server worker #2-2] DEBUG 19:56:24.639 Ready to Stop: true
[New I/O server worker #2-2] DEBUG 19:56:24.640 Sent to socket: Connection: keep-alive
[New I/O server worker #2-2] DEBUG 19:56:24.640 Sent to socket: Content-Range: bytes 0-99999999999/100000000000
[New I/O server worker #2-2] DEBUG 19:56:24.640 Sent to socket: Content-Type: audio/mpeg
[New I/O server worker #2-2] DEBUG 19:56:24.640 Sent to socket: ContentFeatures.DLNA.ORG: DLNA.ORG_PN=MP3;DLNA.ORG_OP=01;DLNA.ORG_CI=0;DLNA.ORG_FLAGS=01700000000000000000000000000000
[New I/O server worker #2-2] DEBUG 19:56:24.640 Sent to socket: Server: Mac_OS_X-x86_64-10.5.7, UPnP/1.0, PMS/1.20
[New I/O server worker #2-2] DEBUG 19:56:24.640 Sent to socket: TransferMode.DLNA.ORG: Streaming
[New I/O server worker #2-1] DEBUG 19:56:24.653 Opened handler on socket /192.168.1.24:4431 // Samsung Wiselink
[New I/O server worker #2-1] DEBUG 19:56:24.653 Handler infos: HTTP/1.0 : HEAD : get/0$1$0$0$0/01+Mulder+And+Scully.m4a
[New I/O server worker #2-1] DEBUG 19:56:24.653 Received on socket: getcontentFeatures.dlna.org: 1
[New I/O server worker #2-1] DEBUG 19:56:24.653 Received on socket: Host: 192.168.1.99:5001
[New I/O server worker #2-1] INFO  19:56:24.653 HTTP: get/0$1$0$0$0/01+Mulder+And+Scully.m4a / 0-0
[New I/O server worker #2-1] DEBUG 19:56:24.653 Searching for objectId: 0$1$0$0$0 with children option: false
[New I/O server worker #2-1] DEBUG 19:56:24.653 Asked stream chunk [0-0] timeseek: 0.0 of 01 Mulder And Scully.m4a and player MPlayer Audio
[New I/O server worker #2-1] DEBUG 19:56:24.653 Ready to Stop: false
[New I/O server worker #2-1] DEBUG 19:56:24.654 Ready to Stop: true
[New I/O server worker #2-1] DEBUG 19:56:24.654 Sent to socket: Connection: keep-alive
[New I/O server worker #2-1] DEBUG 19:56:24.654 Sent to socket: Content-Type: audio/mpeg
[New I/O server worker #2-1] DEBUG 19:56:24.654 Sent to socket: ContentFeatures.DLNA.ORG: DLNA.ORG_PN=MP3;DLNA.ORG_OP=01;DLNA.ORG_CI=0;DLNA.ORG_FLAGS=01700000000000000000000000000000
[New I/O server worker #2-1] DEBUG 19:56:24.654 Sent to socket: Server: Mac_OS_X-x86_64-10.5.7, UPnP/1.0, PMS/1.20
[New I/O server worker #2-2] DEBUG 19:56:24.666 Opened handler on socket /192.168.1.24:4414 // Samsung Wiselink
[New I/O server worker #2-2] DEBUG 19:56:24.666 Handler infos: HTTP/1.0 : GET : get/0$1$0$0$0/01+Mulder+And+Scully.m4a
[New I/O server worker #2-2] DEBUG 19:56:24.666 Received on socket: getcontentFeatures.dlna.org: 1
[New I/O server worker #2-2] DEBUG 19:56:24.666 Received on socket: getMediaInfo.sec: 1
[New I/O server worker #2-2] DEBUG 19:56:24.666 Received on socket: Host: 192.168.1.99:5001
[New I/O server worker #2-2] DEBUG 19:56:24.666 Received on socket: Range: bytes=0-
[New I/O server worker #2-2] DEBUG 19:56:24.666 Received on socket: transferMode.dlna.org: Streaming
[New I/O server worker #2-2] INFO  19:56:24.666 HTTP: get/0$1$0$0$0/01+Mulder+And+Scully.m4a / 0-100000000000
[New I/O server worker #2-2] DEBUG 19:56:24.666 Searching for objectId: 0$1$0$0$0 with children option: false
[New I/O server worker #2-2] DEBUG 19:56:24.666 Asked stream chunk [0-100000000000] timeseek: 0.0 of 01 Mulder And Scully.m4a and player MPlayer Audio
[New I/O server worker #2-2] DEBUG 19:56:24.666 Ready to Stop: false
[New I/O server worker #2-2] DEBUG 19:56:24.667 Ready to Stop: true
[New I/O server worker #2-2] DEBUG 19:56:24.667 Sent to socket: Connection: keep-alive
[New I/O server worker #2-2] DEBUG 19:56:24.667 Sent to socket: Content-Range: bytes 0-99999999999/100000000000
[New I/O server worker #2-2] DEBUG 19:56:24.667 Sent to socket: Content-Type: audio/mpeg
[New I/O server worker #2-2] DEBUG 19:56:24.667 Sent to socket: ContentFeatures.DLNA.ORG: DLNA.ORG_PN=MP3;DLNA.ORG_OP=01;DLNA.ORG_CI=0;DLNA.ORG_FLAGS=01700000000000000000000000000000
[New I/O server worker #2-2] DEBUG 19:56:24.668 Sent to socket: Server: Mac_OS_X-x86_64-10.5.7, UPnP/1.0, PMS/1.20
[New I/O server worker #2-2] DEBUG 19:56:24.668 Sent to socket: TransferMode.DLNA.ORG: Streaming
[Timer-0] DEBUG 19:56:25.336 Buffered Space: 0 bytes / inputs: 0
[Thread-25] INFO  19:56:27.127 Stopping process: osx/ffmpeg
[Thread-25] DEBUG 19:56:27.127 Killing the Unix process: 29716
[Thread-26] INFO  19:56:27.143 Destroying buffer
[Thread-28] INFO  19:56:27.521 Destroying buffer
[Thread-27] INFO  19:56:27.523 Destroying buffer
[Thread-25] INFO  19:56:27.523 Destroying buffer
[Thread-29] DEBUG 19:56:27.522 kill: 29716: No such process
[Thread-25] INFO  19:56:28.513 Destroying buffer
[New I/O server worker #2-1] DEBUG 19:56:30.294 Opened handler on socket /192.168.1.24:2602 // Samsung Wiselink
[New I/O server worker #2-1] DEBUG 19:56:30.294 Handler infos: HTTP/1.0 : HEAD : get/0$1$0$0$1/02+Game+On.m4a
[New I/O server worker #2-1] DEBUG 19:56:30.294 Received on socket: getcontentFeatures.dlna.org: 1
[New I/O server worker #2-1] DEBUG 19:56:30.294 Received on socket: Host: 192.168.1.99:5001
[New I/O server worker #2-1] INFO  19:56:30.294 HTTP: get/0$1$0$0$1/02+Game+On.m4a / 0-0
[New I/O server worker #2-1] DEBUG 19:56:30.294 Searching for objectId: 0$1$0$0$1 with children option: false
[New I/O server worker #2-1] DEBUG 19:56:30.294 Asked stream chunk [0-0] timeseek: 0.0 of 02 Game On.m4a and player MPlayer Audio
[New I/O server worker #2-1] TRACE 19:56:30.294 Starting transcode/remux of 02 Game On.m4a
[New I/O server worker #2-1] DEBUG 19:56:30.296 Searching an audio track with lang: fre
[New I/O server worker #2-1] DEBUG 19:56:30.296 Searching an audio track with lang: jpn
[New I/O server worker #2-1] DEBUG 19:56:30.296 Searching an audio track with lang: ger
[New I/O server worker #2-1] DEBUG 19:56:30.296 Searching an audio track with lang: eng
[New I/O server worker #2-1] DEBUG 19:56:30.296 Choosed a default audio track: Audio: AAC / lang: null / ID: 0
[New I/O server worker #2-1] DEBUG 19:56:30.296 Searching a subtitle track with lang: fre
[New I/O server worker #2-1] DEBUG 19:56:30.296 Searching a subtitle track with lang: eng
[osx/ffmpeg] INFO  19:56:30.297 Starting /Applications/PS3 Media Server.app/Contents/Resources/Java/osx/ffmpeg -sn -sn -sn -sn -sn -sn -i /Users/jonathantrevor/Music/iTunes/iTunes Music/Catatonia/International Velvet/02 Game On.m4a -sn -sn -f mp3 -ab 320000 -muxpreload 0 pipe:
[osx/ffmpeg] INFO  19:56:30.481 Attaching thread: osx/ffmpeg
[Timer-1] DEBUG 19:56:30.481 Buffered Space: 0 bytes / inputs: 0
[Thread-31] DEBUG 19:56:30.482 FFmpeg version SVN-r18717-snapshot, Copyright (c) 2000-2009 Fabrice Bellard, et al.
[Thread-31] DEBUG 19:56:30.482   configuration: --prefix=/Users/robin/Development/mplayerlibs --disable-shared --enable-static --enable-pthreads --enable-gpl
[Thread-31] DEBUG 19:56:30.482   libavutil     50. 3. 0 / 50. 3. 0
[Thread-31] DEBUG 19:56:30.482   libavcodec    52.27. 0 / 52.27. 0
[Thread-31] DEBUG 19:56:30.482   libavformat   52.32. 0 / 52.32. 0
[Thread-31] DEBUG 19:56:30.482   libavdevice   52. 2. 0 / 52. 2. 0
[Thread-31] DEBUG 19:56:30.482   libswscale     0. 7. 1 /  0. 7. 1
[Thread-31] DEBUG 19:56:30.482   built on Apr 30 2009 22:20:59, gcc: 4.0.1 (Apple Inc. build 5493)
[Thread-31] DEBUG 19:56:30.482 Input #0, mov,mp4,m4a,3gp,3g2,mj2, from '/Users/jonathantrevor/Music/iTunes/iTunes Music/Catatonia/International Velvet/02 Game On.m4a':
[Thread-31] DEBUG 19:56:30.482   Duration: 00:02:51.78, start: 0.000000, bitrate: 257 kb/s
[Thread-31] DEBUG 19:56:30.482     Stream #0.0(und): Audio: aac, 44100 Hz, stereo, s16
[Thread-31] DEBUG 19:56:30.482 Output #0, mp3, to 'pipe:':
[Thread-31] DEBUG 19:56:30.482     Stream #0.0(und): Audio: 0x0000, 44100 Hz, stereo, s16, 320 kb/s
[Thread-31] DEBUG 19:56:30.482 Stream mapping:
[Thread-31] DEBUG 19:56:30.482   Stream #0.0 -> #0.0
[Thread-31] DEBUG 19:56:30.482 Unsupported codec for output stream #0.0
[osx/ffmpeg] DEBUG 19:56:30.485 EOF
[osx/ffmpeg] TRACE 19:56:30.485 Process /Applications/PS3 Media Server.app/Contents/Resources/Java/osx/ffmpeg has a return code of 1! Maybe an error occured... check the log file
[New I/O server worker #2-1] DEBUG 19:56:32.299 Ready to Stop: true
[New I/O server worker #2-1] DEBUG 19:56:32.301 Sent to socket: Connection: keep-alive
[New I/O server worker #2-1] DEBUG 19:56:32.301 Sent to socket: Content-Type: audio/mpeg
[New I/O server worker #2-1] DEBUG 19:56:32.301 Sent to socket: ContentFeatures.DLNA.ORG: DLNA.ORG_PN=MP3;DLNA.ORG_OP=01;DLNA.ORG_CI=0;DLNA.ORG_FLAGS=01700000000000000000000000000000
[New I/O server worker #2-1] DEBUG 19:56:32.301 Sent to socket: Server: Mac_OS_X-x86_64-10.5.7, UPnP/1.0, PMS/1.20
[New I/O server worker #2-2] DEBUG 19:56:32.312 Opened handler on socket /192.168.1.24:3969 // Samsung Wiselink
[New I/O server worker #2-2] DEBUG 19:56:32.312 Handler infos: HTTP/1.0 : GET : get/0$1$0$0$1/02+Game+On.m4a
[New I/O server worker #2-2] DEBUG 19:56:32.312 Received on socket: getcontentFeatures.dlna.org: 1
[New I/O server worker #2-2] DEBUG 19:56:32.312 Received on socket: getMediaInfo.sec: 1
[New I/O server worker #2-2] DEBUG 19:56:32.312 Received on socket: Host: 192.168.1.99:5001
[New I/O server worker #2-2] DEBUG 19:56:32.312 Received on socket: Range: bytes=0-
[New I/O server worker #2-2] DEBUG 19:56:32.312 Received on socket: transferMode.dlna.org: Streaming
[New I/O server worker #2-2] INFO  19:56:32.312 HTTP: get/0$1$0$0$1/02+Game+On.m4a / 0-100000000000
[New I/O server worker #2-2] DEBUG 19:56:32.312 Searching for objectId: 0$1$0$0$1 with children option: false
[New I/O server worker #2-2] DEBUG 19:56:32.312 Asked stream chunk [0-100000000000] timeseek: 0.0 of 02 Game On.m4a and player MPlayer Audio
[New I/O server worker #2-2] DEBUG 19:56:32.312 Ready to Stop: false
[New I/O server worker #2-2] DEBUG 19:56:32.314 Ready to Stop: true
[New I/O server worker #2-2] DEBUG 19:56:32.314 Sent to socket: Connection: keep-alive
[New I/O server worker #2-2] DEBUG 19:56:32.314 Sent to socket: Content-Range: bytes 0-99999999999/100000000000
[New I/O server worker #2-2] DEBUG 19:56:32.314 Sent to socket: Content-Type: audio/mpeg
[New I/O server worker #2-2] DEBUG 19:56:32.314 Sent to socket: ContentFeatures.DLNA.ORG: DLNA.ORG_PN=MP3;DLNA.ORG_OP=01;DLNA.ORG_CI=0;DLNA.ORG_FLAGS=01700000000000000000000000000000
[New I/O server worker #2-2] DEBUG 19:56:32.314 Sent to socket: Server: Mac_OS_X-x86_64-10.5.7, UPnP/1.0, PMS/1.20
[New I/O server worker #2-2] DEBUG 19:56:32.314 Sent to socket: TransferMode.DLNA.ORG: Streaming
[New I/O server worker #2-1] DEBUG 19:56:32.327 Opened handler on socket /192.168.1.24:3025 // Samsung Wiselink
[New I/O server worker #2-1] DEBUG 19:56:32.327 Handler infos: HTTP/1.0 : HEAD : get/0$1$0$0$1/02+Game+On.m4a
[New I/O server worker #2-1] DEBUG 19:56:32.327 Received on socket: getcontentFeatures.dlna.org: 1
[New I/O server worker #2-1] DEBUG 19:56:32.327 Received on socket: Host: 192.168.1.99:5001
[New I/O server worker #2-1] INFO  19:56:32.327 HTTP: get/0$1$0$0$1/02+Game+On.m4a / 0-0
[New I/O server worker #2-1] DEBUG 19:56:32.327 Searching for objectId: 0$1$0$0$1 with children option: false
[New I/O server worker #2-1] DEBUG 19:56:32.327 Asked stream chunk [0-0] timeseek: 0.0 of 02 Game On.m4a and player MPlayer Audio
[New I/O server worker #2-1] DEBUG 19:56:32.327 Ready to Stop: false
[New I/O server worker #2-1] DEBUG 19:56:32.328 Ready to Stop: true
[New I/O server worker #2-1] DEBUG 19:56:32.328 Sent to socket: Connection: keep-alive
[New I/O server worker #2-1] DEBUG 19:56:32.328 Sent to socket: Content-Type: audio/mpeg
[New I/O server worker #2-1] DEBUG 19:56:32.328 Sent to socket: ContentFeatures.DLNA.ORG: DLNA.ORG_PN=MP3;DLNA.ORG_OP=01;DLNA.ORG_CI=0;DLNA.ORG_FLAGS=01700000000000000000000000000000
[New I/O server worker #2-1] DEBUG 19:56:32.328 Sent to socket: Server: Mac_OS_X-x86_64-10.5.7, UPnP/1.0, PMS/1.20
[New I/O server worker #2-2] DEBUG 19:56:32.339 Opened handler on socket /192.168.1.24:3224 // Samsung Wiselink
[New I/O server worker #2-2] DEBUG 19:56:32.339 Handler infos: HTTP/1.0 : GET : get/0$1$0$0$1/02+Game+On.m4a
[New I/O server worker #2-2] DEBUG 19:56:32.339 Received on socket: getcontentFeatures.dlna.org: 1
[New I/O server worker #2-2] DEBUG 19:56:32.339 Received on socket: getMediaInfo.sec: 1
[New I/O server worker #2-2] DEBUG 19:56:32.339 Received on socket: Host: 192.168.1.99:5001
[New I/O server worker #2-2] DEBUG 19:56:32.339 Received on socket: Range: bytes=0-
[New I/O server worker #2-2] DEBUG 19:56:32.339 Received on socket: transferMode.dlna.org: Streaming
[New I/O server worker #2-2] INFO  19:56:32.339 HTTP: get/0$1$0$0$1/02+Game+On.m4a / 0-100000000000
[New I/O server worker #2-2] DEBUG 19:56:32.339 Searching for objectId: 0$1$0$0$1 with children option: false
[New I/O server worker #2-2] DEBUG 19:56:32.339 Asked stream chunk [0-100000000000] timeseek: 0.0 of 02 Game On.m4a and player MPlayer Audio
[New I/O server worker #2-2] DEBUG 19:56:32.339 Ready to Stop: false
[New I/O server worker #2-2] DEBUG 19:56:32.340 Ready to Stop: true
[New I/O server worker #2-2] DEBUG 19:56:32.340 Sent to socket: Connection: keep-alive
[New I/O server worker #2-2] DEBUG 19:56:32.340 Sent to socket: Content-Range: bytes 0-99999999999/100000000000
[New I/O server worker #2-2] DEBUG 19:56:32.340 Sent to socket: Content-Type: audio/mpeg
[New I/O server worker #2-2] DEBUG 19:56:32.340 Sent to socket: ContentFeatures.DLNA.ORG: DLNA.ORG_PN=MP3;DLNA.ORG_OP=01;DLNA.ORG_CI=0;DLNA.ORG_FLAGS=01700000000000000000000000000000
[New I/O server worker #2-2] DEBUG 19:56:32.340 Sent to socket: Server: Mac_OS_X-x86_64-10.5.7, UPnP/1.0, PMS/1.20
[New I/O server worker #2-2] DEBUG 19:56:32.340 Sent to socket: TransferMode.DLNA.ORG: Streaming
[Timer-1] DEBUG 19:56:32.481 Buffered Space: 0 bytes / inputs: 0
[Thread-17] DEBUG 19:56:34.443 Receiving a NOTIFY from [192.168.1.24:1025]
[Thread-17] DEBUG 19:56:34.470 Receiving a NOTIFY from [192.168.1.24:1025]
[Timer-1] DEBUG 19:56:34.481 Buffered Space: 0 bytes / inputs: 0
[Thread-17] DEBUG 19:56:34.499 Receiving a NOTIFY from [192.168.1.24:1025]
[Thread-17] DEBUG 19:56:34.529 Receiving a NOTIFY from [192.168.1.24:1025]
[Thread-17] DEBUG 19:56:34.559 Receiving a NOTIFY from [192.168.1.24:1025]
[Thread-17] DEBUG 19:56:34.590 Receiving a NOTIFY from [192.168.1.24:1025]
[Thread-17] DEBUG 19:56:34.619 Receiving a NOTIFY from [192.168.1.24:1025]
[Thread-17] DEBUG 19:56:34.649 Receiving a NOTIFY from [192.168.1.24:1025]
[Thread-17] DEBUG 19:56:34.680 Receiving a NOTIFY from [192.168.1.24:1025]
[Thread-17] DEBUG 19:56:34.710 Receiving a NOTIFY from [192.168.1.24:1025]
[Thread-17] DEBUG 19:56:34.739 Receiving a NOTIFY from [192.168.1.24:1025]
[Thread-17] DEBUG 19:56:34.770 Receiving a NOTIFY from [192.168.1.24:1025]
[Thread-17] DEBUG 19:56:34.799 Receiving a NOTIFY from [192.168.1.24:1025]
[Thread-34] INFO  19:56:34.801 Stopping process: osx/ffmpeg
[Thread-34] DEBUG 19:56:34.802 Killing the Unix process: 29718
[Thread-35] INFO  19:56:34.816 Destroying buffer
[Thread-37] INFO  19:56:35.204 Destroying buffer
[Thread-17] DEBUG 19:56:35.205 Receiving a NOTIFY from [192.168.1.24:1025]
[Thread-17] DEBUG 19:56:35.205 Receiving a NOTIFY from [192.168.1.24:1025]


Id have said:
[Thread-31] DEBUG 19:56:30.482 Unsupported codec for output stream #0.0

Looked like a problem (also in previous post)...

Jonathan
jonathantrevor
 
Posts: 5
Joined: Tue Jul 21, 2009 3:55 am

Re: Can't stream m4a (itunes) to Samsung from OSX

Postby shagrath » Fri Jul 24, 2009 7:11 pm

ok sorry, I was confused with something else, well obviously the "-f mp3" doesn't work with this ffmpeg build. we need some advice from the build creator... Redlum ? :p
shagrath
Project Lead
 
Posts: 2667
Joined: Wed Jan 14, 2009 1:39 pm

Next

Return to Mac OS X Support

Who is online

Users browsing this forum: Google [Bot] and 2 guests