PS3 Mavericks

For help and support with issues specific to Mac OS X
Forum rules
Please make sure you follow the Problem Reporting Guidelines before posting if you want a reply.

Re: PS3 Mavericks

Postby tekyguy » Sat Dec 21, 2013 2:31 am

I have not had issues running PS3MS on Mavericks for the most part. What does happen is after a few days, Java starts taching out a single CORE on the CPU and then the content starts skipping. I simply reboot PS3MS and it will work flawlessly again for another 3 days or so. It is definitely related to the new Java I believe and the Java process is what shows 100% on the single core. I'm patiently waiting for an update that will solve this :-) If I can provide any of the developers any more information please let me know and I will be happy to provide whatever I can!
tekyguy
 
Posts: 4
Joined: Fri Nov 01, 2013 11:27 pm

Re: PS3 Mavericks

Postby theflaminghips » Thu Jan 30, 2014 4:45 pm

I am having the same problem with the program not quitting properly. I'm on Mavericks.

It stays open in my dock when I shut it down and I can't force quit it. The only way to quit it is to restart the computer. Is there a fix for this?
theflaminghips
 
Posts: 1
Joined: Thu Jan 30, 2014 4:41 pm

Re: PS3 Mavericks

Postby vikingo1ero » Thu Feb 06, 2014 9:04 pm

Hello
new ps3 media server 1.90.1 do not work well in macos mavericks, also do not charge captions, which load is the version 1.89 and the videos do not run well, I can do?
vikingo1ero
 
Posts: 1
Joined: Thu Feb 06, 2014 8:43 pm

Re: PS3 Mavericks

Postby Milo_Mindbender » Mon Feb 10, 2014 6:08 am

I'm having the same problem with subtitles not working on Mavericks. I've tried the workaround of specifying the font path but still nothing...

VLC says the file has SSA subtitles.

My setup in PMS is...

Disable Subtitles unchecked
subtitles priority: eng
forced language: eng
audio/subtitles language priority: *,*
alternate subtitles folder: blank
codepage: cp1252
FriBiDi mode: unchecked
specify truetype font: /Library/Fonts/Arial.ttf
Automatically load *srt/*.sub subtitles: checked

The Mencoder line from the debug log is

Code: Select all
DEBUG 2014-02-09 20:49:30.079 [mencoder-24] Starting "/Applications/PS3 Media Server.app/Contents/Resources/Java/osx/mencoder" -ss 86.502 "/Users/greg_corson/Downloads/Bittorrent Downloads/[Hiryuu] Maken-Ki! [Hi10P 1280x720 H264]_/[Hiryuu] Maken-Ki! 01 [Hi10P 1280x720 H264] [A83B8CA5].mkv" -msglevel statusline=2 -oac lavc -of mpeg -mpegopts format=mpeg2:muxrate=500000:vbuf_size=1194:abuf_size=64 -ovc lavc -channels 6 -lavdopts debug=0:threads=8 -lavcopts autoaspect=1:vcodec=mpeg2video:acodec=ac3:abitrate=448:threads=8:keyint=25:vqscale=1:vqmin=2:vqmax=3:vrc_maxrate=499000:vrc_buf_size=7000 -ass -noautosub -sid 0 -ofps 24000/1001 -lavdopts fast -mc 0 -noskip -af lavcresample=48000 -srate 48000 -o - -really-quiet -msglevel statusline=2


When I first browse into the directories where the files are, I get stuff like this this:

Code: Select all
DEBUG 2014-02-09 20:59:19.628 [main] Reading uuid: default: null, current: "3c89b495-a39b-34a7-912d-b3f651e8c30b"
INFO  2014-02-09 20:59:19.628 [main] Using the following UUID configured in PMS.conf: 3c89b495-a39b-34a7-912d-b3f651e8c30b
INFO  2014-02-09 20:59:19.882 [main] The server should now appear on your renderer
INFO  2014-02-09 20:59:20.668 [New I/O server worker #1-1] No IP filter specified, access granted to /10.0.0.4
INFO  2014-02-09 20:59:20.677 [pool-5-thread-1] Checking IP: 10.0.0.4 for PlayStation 3
DEBUG 2014-02-09 20:59:20.694 [New I/O server worker #1-1] HTTP User-Agent: UPnP/1.0
INFO  2014-02-09 20:59:24.880 [pool-5-thread-1] Renderer PlayStation 3 found on this address: 10.0.0.4
DEBUG 2014-02-09 20:59:24.884 [pool-5-thread-1] Starting ping -c 3 -s 64000 10.0.0.4
DEBUG 2014-02-09 20:59:24.893 [Thread-6] ping: sendto: Message too long
DEBUG 2014-02-09 20:59:24.893 [pool-5-thread-1] Unix process ID (ping): 5949
DEBUG 2014-02-09 20:59:25.892 [Thread-6] ping: sendto: Message too long
DEBUG 2014-02-09 20:59:26.886 [SpeedStats Failsafe] Stopping Unix process 5949: ping-0
DEBUG 2014-02-09 20:59:29.888 [UPNP-AliveMessageSender] Sending ALIVE...
DEBUG 2014-02-09 20:59:49.899 [UPNP-AliveMessageSender] Sending ALIVE...
INFO  2014-02-09 21:00:06.351 [New I/O server worker #1-12] Checking shared folder: /Users/greg_corson/Storage/Video
INFO  2014-02-09 21:00:06.352 [New I/O server worker #1-12] Checking shared folder: /Users/greg_corson/Downloads/!unsorted anime
INFO  2014-02-09 21:00:06.352 [New I/O server worker #1-12] Checking shared folder: /Users/greg_corson/Downloads/Bittorrent Downloads
DEBUG 2014-02-09 21:00:14.262 [New I/O server worker #1-6] Starting "/Applications/PS3 Media Server.app/Contents/Resources/Java/osx/ffmpeg" -ss 2 -i "/Users/greg_corson/Downloads/Bittorrent Downloads/[Hiryuu] Maken-Ki! [Hi10P 1280x720 H264]_/[Hiryuu] Maken-Ki! 01 [Hi10P 1280x720 H264] [A83B8CA5].mkv" -an -an -s 320x180 -vframes 1 -f image2 pipe:
INFO  2014-02-09 21:00:14.272 [New I/O server worker #1-6] Successfully initialized buffer to 1,048,576 bytes.
DEBUG 2014-02-09 21:00:14.274 [New I/O server worker #1-6] Attaching thread: ffmpeg-1
DEBUG 2014-02-09 21:00:14.274 [New I/O server worker #1-6] Unix process ID (/Applications/PS3 Media Server.app/Contents/Resources/Java/osx/ffmpeg): 5954
DEBUG 2014-02-09 21:00:14.284 [Thread-9] ffmpeg version 2.0 (PMS6) for PS3 Media Server Copyright (c) 2000-2013 the FFmpeg developers
DEBUG 2014-02-09 21:00:14.285 [Thread-9]   built on Jul 19 2013 13:57:34 with llvm-gcc 4.2.1 (LLVM build 2336.11.00)
DEBUG 2014-02-09 21:00:14.286 [Thread-9]   configuration: http://git.io/ZHdseg
DEBUG 2014-02-09 21:00:14.316 [Thread-9] Input #0, matroska,webm, from '/Users/greg_corson/Downloads/Bittorrent Downloads/[Hiryuu] Maken-Ki! [Hi10P 1280x720 H264]_/[Hiryuu] Maken-Ki! 01 [Hi10P 1280x720 H264] [A83B8CA5].mkv':
DEBUG 2014-02-09 21:00:14.316 [Thread-9]   Metadata:
DEBUG 2014-02-09 21:00:14.316 [Thread-9]     creation_time   : 2011-10-09 12:36:18
DEBUG 2014-02-09 21:00:14.316 [Thread-9]   Duration: 00:24:40.51, start: 0.000000, bitrate: 1975 kb/s
DEBUG 2014-02-09 21:00:14.316 [Thread-9]     Chapter #0.0: start 0.000000, end 79.997000
DEBUG 2014-02-09 21:00:14.316 [Thread-9]     Metadata:
DEBUG 2014-02-09 21:00:14.316 [Thread-9]       title           : Part A
DEBUG 2014-02-09 21:00:14.316 [Thread-9]     Chapter #0.1: start 770.853000, end 180.013000
DEBUG 2014-02-09 21:00:14.316 [Thread-9]     Metadata:
DEBUG 2014-02-09 21:00:14.316 [Thread-9]       title           : Part B
DEBUG 2014-02-09 21:00:14.316 [Thread-9]     Chapter #0.2: start 1348.889000, end 1324.949000
DEBUG 2014-02-09 21:00:14.316 [Thread-9]     Metadata:
DEBUG 2014-02-09 21:00:14.316 [Thread-9]       title           : Ending
DEBUG 2014-02-09 21:00:14.316 [Thread-9]     Chapter #0.3: start 1438.812000, end 1414.997000
DEBUG 2014-02-09 21:00:14.316 [Thread-9]     Metadata:
DEBUG 2014-02-09 21:00:14.317 [Thread-9]       title           : Preview
DEBUG 2014-02-09 21:00:14.317 [Thread-9]     Stream #0:0(eng): Subtitle: ssa (default)
DEBUG 2014-02-09 21:00:14.317 [Thread-9]     Stream #0:1(jpn): Audio: aac, 48000 Hz, stereo, fltp (default)
DEBUG 2014-02-09 21:00:14.317 [Thread-9]     Stream #0:2(jpn): Video: h264 (High 10), yuv420p10le, 1280x720, SAR 1:1 DAR 16:9, 23.98 fps, 23.98 tbr, 1k tbn, 47.95 tbc
DEBUG 2014-02-09 21:00:14.317 [Thread-9] Codec 0x18000 is not in the full list.
DEBUG 2014-02-09 21:00:14.317 [Thread-9]     Stream #0:3: Attachment: unknown_codec
DEBUG 2014-02-09 21:00:14.317 [Thread-9]     Metadata:
DEBUG 2014-02-09 21:00:14.317 [Thread-9]       filename        : AdobeArabic-Regular.otf
DEBUG 2014-02-09 21:00:14.317 [Thread-9]       mimetype        : application/x-truetype-font
DEBUG 2014-02-09 21:00:14.317 [Thread-9] Codec 0x18000 is not in the full list.
DEBUG 2014-02-09 21:00:14.317 [Thread-9]     Stream #0:4: Attachment: unknown_codec
DEBUG 2014-02-09 21:00:14.317 [Thread-9]     Metadata:
DEBUG 2014-02-09 21:00:14.317 [Thread-9]       filename        : AdobeSongStd-Light.otf
DEBUG 2014-02-09 21:00:14.317 [Thread-9]       mimetype        : application/x-truetype-font
DEBUG 2014-02-09 21:00:14.317 [Thread-9] Codec 0x18000 is not in the full list.
DEBUG 2014-02-09 21:00:14.317 [Thread-9]     Stream #0:5: Attachment: unknown_codec
DEBUG 2014-02-09 21:00:14.317 [Thread-9]     Metadata:
DEBUG 2014-02-09 21:00:14.317 [Thread-9]       filename        : FranKleinBold.ttf
DEBUG 2014-02-09 21:00:14.317 [Thread-9]       mimetype        : application/x-truetype-font
DEBUG 2014-02-09 21:00:14.317 [Thread-9] Codec 0x18000 is not in the full list.
DEBUG 2014-02-09 21:00:14.318 [Thread-9]     Stream #0:6: Attachment: unknown_codec
DEBUG 2014-02-09 21:00:14.318 [Thread-9]     Metadata:
DEBUG 2014-02-09 21:00:14.318 [Thread-9]       filename        : FromWhereYouAre.ttf
DEBUG 2014-02-09 21:00:14.318 [Thread-9]       mimetype        : application/x-truetype-font
DEBUG 2014-02-09 21:00:14.318 [Thread-9] Codec 0x18000 is not in the full list.
DEBUG 2014-02-09 21:00:14.318 [Thread-9]     Stream #0:7: Attachment: unknown_codec
DEBUG 2014-02-09 21:00:14.318 [Thread-9]     Metadata:
DEBUG 2014-02-09 21:00:14.318 [Thread-9]       filename        : GosmickSans.ttf
DEBUG 2014-02-09 21:00:14.318 [Thread-9]       mimetype        : application/x-truetype-font
DEBUG 2014-02-09 21:00:14.318 [Thread-9] Codec 0x18000 is not in the full list.
DEBUG 2014-02-09 21:00:14.318 [Thread-9]     Stream #0:8: Attachment: unknown_codec
DEBUG 2014-02-09 21:00:14.318 [Thread-9]     Metadata:
DEBUG 2014-02-09 21:00:14.318 [Thread-9]       filename        : handsean.ttf
DEBUG 2014-02-09 21:00:14.318 [Thread-9]       mimetype        : application/x-truetype-font
DEBUG 2014-02-09 21:00:14.318 [Thread-9] Codec 0x18000 is not in the full list.
DEBUG 2014-02-09 21:00:14.318 [Thread-9]     Stream #0:9: Attachment: unknown_codec
DEBUG 2014-02-09 21:00:14.318 [Thread-9]     Metadata:
DEBUG 2014-02-09 21:00:14.318 [Thread-9]       filename        : impact.ttf
DEBUG 2014-02-09 21:00:14.318 [Thread-9]       mimetype        : application/x-truetype-font
DEBUG 2014-02-09 21:00:14.318 [Thread-9] Codec 0x18000 is not in the full list.
DEBUG 2014-02-09 21:00:14.318 [Thread-9]     Stream #0:10: Attachment: unknown_codec
DEBUG 2014-02-09 21:00:14.319 [Thread-9]     Metadata:
DEBUG 2014-02-09 21:00:14.319 [Thread-9]       filename        : laCartoonerie.TTF
DEBUG 2014-02-09 21:00:14.319 [Thread-9]       mimetype        : application/x-truetype-font
DEBUG 2014-02-09 21:00:14.319 [Thread-9] Codec 0x18000 is not in the full list.
DEBUG 2014-02-09 21:00:14.319 [Thread-9]     Stream #0:11: Attachment: unknown_codec
DEBUG 2014-02-09 21:00:14.319 [Thread-9]     Metadata:
DEBUG 2014-02-09 21:00:14.319 [Thread-9]       filename        : Qlassik_TB.otf
DEBUG 2014-02-09 21:00:14.319 [Thread-9]       mimetype        : application/x-truetype-font
DEBUG 2014-02-09 21:00:14.319 [Thread-9] Codec 0x18000 is not in the full list.
DEBUG 2014-02-09 21:00:14.319 [Thread-9]     Stream #0:12: Attachment: unknown_codec
DEBUG 2014-02-09 21:00:14.319 [Thread-9]     Metadata:
DEBUG 2014-02-09 21:00:14.319 [Thread-9]       filename        : Qlassik_TB.ttf
DEBUG 2014-02-09 21:00:14.319 [Thread-9]       mimetype        : application/x-truetype-font
DEBUG 2014-02-09 21:00:14.319 [Thread-9] Codec 0x18000 is not in the full list.
DEBUG 2014-02-09 21:00:14.319 [Thread-9]     Stream #0:13: Attachment: unknown_codec
DEBUG 2014-02-09 21:00:14.319 [Thread-9]     Metadata:
DEBUG 2014-02-09 21:00:14.319 [Thread-9]       filename        : Sex_Pistols.ttf
DEBUG 2014-02-09 21:00:14.319 [Thread-9]       mimetype        : application/x-truetype-font
DEBUG 2014-02-09 21:00:14.319 [Thread-9] Codec 0x18000 is not in the full list.
DEBUG 2014-02-09 21:00:14.320 [Thread-9]     Stream #0:14: Attachment: unknown_codec
DEBUG 2014-02-09 21:00:14.320 [Thread-9]     Metadata:
DEBUG 2014-02-09 21:00:14.320 [Thread-9]       filename        : TektonPro-Bold.otf
DEBUG 2014-02-09 21:00:14.320 [Thread-9]       mimetype        : application/x-truetype-font
DEBUG 2014-02-09 21:00:14.320 [Thread-9] Codec 0x18000 is not in the full list.
DEBUG 2014-02-09 21:00:14.320 [Thread-9]     Stream #0:15: Attachment: unknown_codec
DEBUG 2014-02-09 21:00:14.320 [Thread-9]     Metadata:
DEBUG 2014-02-09 21:00:14.320 [Thread-9]       filename        : TektonPro-BoldObl.otf
DEBUG 2014-02-09 21:00:14.320 [Thread-9]       mimetype        : application/x-truetype-font
DEBUG 2014-02-09 21:00:14.324 [Thread-9] Output #0, image2, to 'pipe:':
DEBUG 2014-02-09 21:00:14.324 [Thread-9]   Metadata:
DEBUG 2014-02-09 21:00:14.324 [Thread-9]     encoder         : Lavf55.12.100
DEBUG 2014-02-09 21:00:14.324 [Thread-9]     Chapter #0.0: start 0.000000, end 77.997000
DEBUG 2014-02-09 21:00:14.324 [Thread-9]     Metadata:
DEBUG 2014-02-09 21:00:14.324 [Thread-9]       title           : Part A
DEBUG 2014-02-09 21:00:14.324 [Thread-9]     Chapter #0.1: start 768.853000, end 178.013000
DEBUG 2014-02-09 21:00:14.324 [Thread-9]     Metadata:
DEBUG 2014-02-09 21:00:14.324 [Thread-9]       title           : Part B
DEBUG 2014-02-09 21:00:14.324 [Thread-9]     Chapter #0.2: start 1346.889000, end 1322.949000
DEBUG 2014-02-09 21:00:14.324 [Thread-9]     Metadata:
DEBUG 2014-02-09 21:00:14.324 [Thread-9]       title           : Ending
DEBUG 2014-02-09 21:00:14.324 [Thread-9]     Chapter #0.3: start 1436.812000, end 1412.997000
DEBUG 2014-02-09 21:00:14.324 [Thread-9]     Metadata:
DEBUG 2014-02-09 21:00:14.325 [Thread-9]       title           : Preview
DEBUG 2014-02-09 21:00:14.325 [Thread-9]     Stream #0:0(jpn): Video: mjpeg, yuvj420p, 320x180 [SAR 1:1 DAR 16:9], q=2-31, 200 kb/s, 90k tbn, 23.98 tbc
DEBUG 2014-02-09 21:00:14.325 [Thread-9] Stream mapping:
DEBUG 2014-02-09 21:00:14.325 [Thread-9]   Stream #0:2 -> #0:0 (h264 -> mjpeg)
DEBUG 2014-02-09 21:00:14.325 [Thread-9] Press [q] to stop, [?] for help
DEBUG 2014-02-09 21:00:14.504 [Thread-9] frame=    1 fps=0.0 q=0.0 Lsize=N/A time=00:00:00.04 bitrate=N/A dup=0 drop=46   
DEBUG 2014-02-09 21:00:14.504 [Thread-9] video:13kB audio:0kB subtitle:0 global headers:0kB muxing overhead -100.165227%
DEBUG 2014-02-09 21:00:14.774 [New I/O server worker #1-12] Starting "/Applications/PS3 Media Server.app/Contents/Resources/Java/osx/ffmpeg" -ss 2 -i "/Users/greg_corson/Downloads/Bittorrent Downloads/[Hiryuu] Maken-Ki! [Hi10P 1280x720 H264]_/[Hiryuu] Maken-Ki! 05v2 [Hi10P 1280x720 H264] [35B2ECEB].mkv" -an -an -s 320x180 -vframes 1 -f image2 pipe:
INFO  2014-02-09 21:00:14.781 [New I/O server worker #1-12] Successfully initialized buffer to 1,048,576 bytes.
DEBUG 2014-02-09 21:00:14.782 [New I/O server worker #1-12] Attaching thread: ffmpeg-2
DEBUG 2014-02-09 21:00:14.782 [New I/O server worker #1-12] Unix process ID (/Applications/PS3 Media Server.app/Contents/Resources/Java/osx/ffmpeg): 5955
DEBUG 2014-02-09 21:00:14.786 [Thread-13] ffmpeg version 2.0 (PMS6) for PS3 Media Server Copyright (c) 2000-2013 the FFmpeg developers
DEBUG 2014-02-09 21:00:14.786 [Thread-13]   built on Jul 19 2013 13:57:34 with llvm-gcc 4.2.1 (LLVM build 2336.11.00)
DEBUG 2014-02-09 21:00:14.786 [Thread-13]   configuration: http://git.io/ZHdseg
 


I have quit and restarted PMS a number of times between tests, but still no subtitles. Any ideas?
Milo_Mindbender
 
Posts: 2
Joined: Sun Dec 18, 2011 5:57 am

Re: PS3 Mavericks

Postby dreanmirc » Mon Mar 03, 2014 2:49 am

Updated Java and Mavericks to 10.9.2 and now my media does not play. All the pastes show up in PS3, but the media does not play properly at all :(
dreanmirc
 
Posts: 1
Joined: Tue Jun 30, 2009 8:07 pm

Re: PS3 Mavericks

Postby arieljohann » Fri Mar 21, 2014 8:47 pm

has there been any progress on this? After upgrading my mac to Mavericks, PMS has started to behave very oddly, I've had to uninstall forcefully using a third party program, then crash restart (hold down the power button) to get rid of it from the dock, otherwise it seems intent on stopping my mac from restarting /shutting down at all.

When this happens it also renders the program completely useless, I've had to resort to using multiple copies to avoid this crash course restart way.

Any solutions? Other than getting an expensive Mini DisplayPort to HDMI adapter and using up one of my two thunderbird ports.... which I really don't want to do.
arieljohann
 
Posts: 1
Joined: Fri Mar 21, 2014 8:41 pm

Re: PS3 Mavericks

Postby Freakazoid » Fri Jul 04, 2014 11:31 am

Hey, i have just formatted and re-installed my mac.. and tried to download the install file for PMS at the site.. but it will not install i get an error and the logo has a stop sign over it..

What is up with that?
Freakazoid
 
Posts: 2
Joined: Fri Jul 04, 2014 11:28 am

Re: PS3 Mavericks

Postby olvikolvi » Thu Aug 14, 2014 8:10 pm

I find solution to fix subtitles on my PMS 1.9 / Mac / Mavericks..
I just needed to go Transcoding settings -> Subtitle settings -> Specify TrueType font (for subtitles) and select /Library/Fonts/Arial.ttf (or other font) and also MEncoder Video -> Disable Use ASS/SSA subtitle styling. Works now.
olvikolvi
 
Posts: 1
Joined: Thu Aug 14, 2014 8:04 pm

Previous

Return to Mac OS X Support

Who is online

Users browsing this forum: Bing [Bot] and 5 guests