Wierd video issues on some movies

For help and support with PS3 Media Server in general
Forum rules
Please make sure you follow the Problem Reporting Guidelines before posting if you want a reply.

Wierd video issues on some movies

Postby jam1324 » Sun Nov 07, 2010 8:41 pm

I am streaming to my toshiba regza 40 inch tv dlna no ps3 and am using a config file I found on some other thread here that made everything work perfectly except for a few videos. I can't even really describe the problem or find anything on here that sounds similar. The bottom half of the screen is cut off and its like half the video is overlapping its self and all torn / artifacty / scrambled. If i play it in my livingroom through my ps3 it works completely fine.
Image

according to gpspot the video is XviD 1.0.3 mpeg4 608 x 256 ( 2.375 (19:8) ) 23.976fps any other info you guys need to diagnose the problem? I am using the newest beta of psm 412

edit

windows 7

custom render

#------------------------------------------------------------
# ps3mediaserver profile for Toshiba REGZA 32RV733G
#------------------------------------------------------------
RendererName=REGZA
RendererIcon=bravia.png
UserAgentSearch=UPnP/1.0 DLNADOC/1.50 Intel_SDK_for_UPnP_devices/1.2
#UserAgentAdditionalHeader=X-AV-Client-Info
#UserAgentAdditionalHeaderSearch=
Video=true
Audio=true
Image=true
SeekByTime=true
DLNALocalizationRequired=false
TranscodeVideo=MPEGTSAC3
TranscodeAudio=MP3
DefaultVBVBufSize=false
MuxH264ToMpegTS=false
MuxDTSToMpeg=false
WrapDTSIntoPCM=false
MuxLPCMToMpeg=false
MaxVideoBitrateMbps=0
MaxVideoWidth=0
MaxVideoHeight=0
H264Level41Limited=true
TranscodeAudioTo441kHz=false
TranscodeFastStart=false
TranscodedVideoFileSize=-1
AutoExifRotate=true
MimeTypesChanges=audio/wav=audio/L16
DLNALocalizationRequired=true
#TranscodeExtensions=
#StreamExtensions=

MediaInfo=true
Supported = f:mpegps|mpegts v:mpeg2 a:ac3 m:video/mpeg
Supported = f:mp3 m:audio/mpeg
Supported = f:wav m:audio/L16
Supported = f:jpg m:image/jpeg

using wifi

output from mediainfo

General
Complete name : G:\movies\The.Descent.Unrated(2005).XViD\The.Descent.Unrated(2005).XViD.avi
Format : AVI
Format/Info : Audio Video Interleave
File size : 701 MiB
Duration : 1h 39mn
Overall bit rate : 981 Kbps
Writing application : VirtualDubMod 1.5.10.2 (build 2540/release)
Writing library : VirtualDubMod build 2540/release

Video
ID : 0
Format : MPEG-4 Visual
Format profile : Simple@L0
Format settings, BVOP : No
Format settings, QPel : No
Format settings, GMC : No warppoints
Format settings, Matrix : Default (H.263)
Codec ID : XVID
Codec ID/Hint : XviD
Duration : 1h 39mn
Bit rate : 840 Kbps
Width : 608 pixels
Height : 256 pixels
Display aspect ratio : 2.35:1
Frame rate : 23.976 fps
Color space : YUV
Chroma subsampling : 4:2:0
Bit depth : 8 bits
Scan type : Progressive
Bits/(Pixel*Frame) : 0.225
Stream size : 600 MiB (86%)
Writing library : XviD 1.0.3 (UTC 2004-12-20)

Audio
ID : 1
Format : MPEG Audio
Format version : Version 1
Format profile : Layer 3
Mode : Joint stereo
Codec ID : 55
Codec ID/Hint : MP3
Duration : 1h 39mn
Bit rate mode : Variable
Bit rate : 128 Kbps
Channel(s) : 2 channels
Sampling rate : 48.0 KHz
Stream size : 92.1 MiB (13%)
Alignment : Aligned on interleaves
Interleave, duration : 24 ms (0.58 video frame)
Interleave, preload duration : 125 ms
Writing library : LAME3.90.3M
Last edited by jam1324 on Sun Nov 07, 2010 9:43 pm, edited 2 times in total.
jam1324
 
Posts: 2
Joined: Sun Nov 07, 2010 7:48 pm

Re: Wierd video issues on some movies

Postby meskibob » Sun Nov 07, 2010 9:13 pm

I provide NO application support via PM or email, so please post your question to the forum per the Forum Rules.
meskibob
Moderator
 
Posts: 4784
Joined: Mon Jan 19, 2009 4:11 pm


Return to General Help and Support

Who is online

Users browsing this forum: Bing [Bot], Yahoo [Bot] and 19 guests