Data type not supported on some files... any ideas?

For help and support with PS3 Media Server in general
Forum rules
Please make sure you follow the Problem Reporting Guidelines before posting if you want a reply.

Re: Data type not supported on some files... any ideas?

Postby devildog93 » Sat May 15, 2010 12:13 am

It's a seperate program.

It converts/remuxes MKV to a playable PS3 format. TS or M2TS. It will automatically add the proper extension, usually MPG for PS3 playback. Handy tool for stubborn MKV's that won't work with tsMuxer engine and stress the CPU too much with MEncoder engine.
It can hard code subs to output video.
Transcode DTS to AC3 if needed.

Here is a forum download link:

http://www.mkv2vob.com/forumdisplay.php?fid=10

I have it in my video toolbox.
User avatar
devildog93
 
Posts: 1301
Joined: Fri Mar 19, 2010 8:37 pm

Re: Data type not supported on some files... any ideas?

Postby shaharp » Sat May 15, 2010 9:23 am

bizqu1ck wrote:
shaharp wrote:using MKV2VOB solved that problem


What do you mean by this? Is this a setting inside of PS3 Media Server?


No,
I used the MKV2MOV Application to convert the file coding
I'm not sure that it does not harm the quality of the video, but even if it does, it's not somthing that can been noticed easily.

I tested that option on 3 different CTU files that I had and show the "Data Not Supported" problem, and in all the new converted file worked without any problems.
shaharp
 
Posts: 3
Joined: Fri May 14, 2010 11:03 am

Re: Data type not supported on some files... any ideas?

Postby andrema2 » Sat May 15, 2010 9:30 pm

I'm having it with some files as well.

I'm using build 409.

using MKV2VOB would be a pain. Why doesn't it work ?

This is the mediainfo of the file
Code: Select all
General
Complete name                    : E:\Series\The Mentalist\Season 2\the.mentalist.s02e20.720p.hdtv.x264-ctu.mkv
Format                           : Matroska
File size                        : 1.09 GiB
Duration                         : 42mn 40s
Overall bit rate                 : 3 665 Kbps
Encoded date                     : UTC 2010-02-22 21:41:29
Writing application              : no_variable_data
Writing library                  : no_variable_data

Video
ID                               : 2
Format                           : AVC
Format/Info                      : Advanced Video Codec
Format profile                   : High@L3.1
Format settings, CABAC           : Yes
Format settings, ReFrames        : 4 frames
Muxing mode                      : Container profile=Unknown@3.1
Codec ID                         : V_MPEG4/ISO/AVC
Duration                         : 42mn 40s
Bit rate                         : 3 280 Kbps
Width                            : 1 280 pixels
Height                           : 720 pixels
Display aspect ratio             : 16:9
Frame rate                       : 23.976 fps
Color space                      : YUV
Chroma subsampling               : 4:2:0
Bit depth                        : 8 bits
Scan type                        : Progressive
Bits/(Pixel*Frame)               : 0.148
Stream size                      : 979 MiB (88%)
Writing library                  : x264 core 85 r1442tw
Encoding settings                : cabac=1 / ref=3 / deblock=1:0:0 / analyse=0x3:0x113 / me=hex / subme=6 / psy=1 / psy_rd=1.00:0.00 / mixed_ref=1 / me_range=16 / chroma_me=1 / trellis=1 / 8x8dct=1 / cqm=0 / deadzone=21,11 / fast_pskip=1 / chroma_qp_offset=-2 / threads=24 / sliced_threads=0 / nr=0 / decimate=1 / mbaff=0 / constrained_intra=0 / bframes=3 / b_pyramid=2 / b_adapt=1 / b_bias=0 / direct=1 / wpredb=1 / wpredp=0 / keyint=240 / keyint_min=24 / scenecut=40 / intra_refresh=0 / rc_lookahead=40 / rc=2pass / mbtree=1 / bitrate=3280 / ratetol=1.0 / qcomp=0.60 / qpmin=10 / qpmax=51 / qpstep=4 / cplxblur=20.0 / qblur=0.5 / ip_ratio=1.40 / aq=1:1.00
Language                         : English

Audio
ID                               : 1
Format                           : AC-3
Format/Info                      : Audio Coding 3
Mode extension                   : CM (complete main)
Codec ID                         : A_AC3
Duration                         : 42mn 40s
Bit rate mode                    : Constant
Bit rate                         : 384 Kbps
Channel(s)                       : 6 channels
Channel positions                : Front: L C R, Side: L R, LFE
Sampling rate                    : 48.0 KHz
Stream size                      : 117 MiB (10%)
andrema2
 
Posts: 9
Joined: Wed Dec 16, 2009 1:54 am

Re: Data type not supported on some files... any ideas?

Postby leper » Wed Jun 09, 2010 9:56 am

I'm having these exact issues as well. Converting the files is not an option, and checking them with Mediainfo gives no real clues. The non working releases look the same as the working ones. Seems to be mainly an issue with -CTU, as someone stated before, but that could be mere coincidence. It does not help whether unpacking them first or streaming from within the rar archive.

this is from debug.log

Code: Select all
[Thread-286] DEBUG 10:40:30.010 Opened handler on socket Socket[addr=/192.168.0.117,port=58173,localport=5001]
[Thread-286] DEBUG 10:40:30.010 Received on socket: POST /upnp/control/content_directory HTTP/1.1
[Thread-286] DEBUG 10:40:30.010 Received on socket: X-AV-Client-Info: av=5.0; cn="Sony Computer Entertainment Inc."; mn="PLAYSTATION 3"; mv="1.0";
[Thread-286] DEBUG 10:40:30.020 Received on socket: Host: 192.168.0.147:5001
[Thread-286] DEBUG 10:40:30.020 Received on socket: User-Agent: UPnP/1.0 DLNADOC/1.50
[Thread-286] DEBUG 10:40:30.020 Received on socket: Content-Length: 276
[Thread-286] DEBUG 10:40:30.020 Received on socket: Content-Type: text/xml; charset="utf-8"
[Thread-286] DEBUG 10:40:30.020 Received on socket: SOAPACTION: "urn:schemas-upnp-org:service:ContentDirectory:1#GetSystemUpdateID"
[Thread-286] INFO  10:40:30.209 HTTP: upnp/control/content_directory / 0-0
[Thread-286] DEBUG 10:40:30.209 Wrote on socket: HTTP/1.1 200 OK
[Thread-286] DEBUG 10:40:30.209 Wrote on socket: CONTENT-TYPE: text/xml; charset="utf-8"
[Thread-286] DEBUG 10:40:30.209 Wrote on socket: Server: Windows_7-x86-6.1, UPnP/1.0, PMS/1.10.51
[Thread-286] DEBUG 10:40:30.209 Wrote on socket: Content-Length: 335
[Thread-286] DEBUG 10:40:30.209 Wrote on socket:
[Thread-286] DEBUG 10:40:30.209 Close Connection
[Thread-287] DEBUG 10:40:30.211 Opened handler on socket Socket[addr=/192.168.0.117,port=58172,localport=5001]
[Thread-287] DEBUG 10:40:30.211 Received on socket: POST /upnp/control/content_directory HTTP/1.1
[Thread-287] DEBUG 10:40:30.211 Received on socket: X-AV-Client-Info: av=5.0; cn="Sony Computer Entertainment Inc."; mn="PLAYSTATION 3"; mv="1.0";
[Thread-287] DEBUG 10:40:30.221 Received on socket: Host: 192.168.0.147:5001
[Thread-287] DEBUG 10:40:30.221 Received on socket: User-Agent: UPnP/1.0 DLNADOC/1.50
[Thread-287] DEBUG 10:40:30.221 Received on socket: Content-Length: 276
[Thread-287] DEBUG 10:40:30.221 Received on socket: Content-Type: text/xml; charset="utf-8"
[Thread-287] DEBUG 10:40:30.221 Received on socket: SOAPACTION: "urn:schemas-upnp-org:service:ContentDirectory:1#GetSystemUpdateID"
[Thread-287] INFO  10:40:30.416 HTTP: upnp/control/content_directory / 0-0
[Thread-287] DEBUG 10:40:30.416 Wrote on socket: HTTP/1.1 200 OK
[Thread-287] DEBUG 10:40:30.416 Wrote on socket: CONTENT-TYPE: text/xml; charset="utf-8"
[Thread-287] DEBUG 10:40:30.416 Wrote on socket: Server: Windows_7-x86-6.1, UPnP/1.0, PMS/1.10.51
[Thread-287] DEBUG 10:40:30.416 Wrote on socket: Content-Length: 335
[Thread-287] DEBUG 10:40:30.416 Wrote on socket:
[Thread-287] DEBUG 10:40:30.416 Close Connection
[Thread-288] DEBUG 10:40:30.418 Opened handler on socket Socket[addr=/192.168.0.117,port=58171,localport=5001]
[Thread-288] DEBUG 10:40:30.418 Received on socket: POST /upnp/control/content_directory HTTP/1.1
[Thread-288] DEBUG 10:40:30.418 Received on socket: X-AV-Client-Info: av=5.0; cn="Sony Computer Entertainment Inc."; mn="PLAYSTATION 3"; mv="1.0";
[Thread-288] DEBUG 10:40:30.428 Received on socket: Host: 192.168.0.147:5001
[Thread-288] DEBUG 10:40:30.428 Received on socket: User-Agent: UPnP/1.0 DLNADOC/1.50
[Thread-288] DEBUG 10:40:30.428 Received on socket: Content-Length: 906
[Thread-288] DEBUG 10:40:30.428 Received on socket: Content-Type: text/xml; charset="utf-8"
[Thread-288] DEBUG 10:40:30.428 Received on socket: SOAPACTION: "urn:schemas-upnp-org:service:ContentDirectory:1#Browse"
[Thread-288] INFO  10:40:30.616 HTTP: upnp/control/content_directory / 0-0
[Thread-288] DEBUG 10:40:30.616 Wrote on socket: HTTP/1.1 200 OK
[Thread-288] DEBUG 10:40:30.616 Wrote on socket: CONTENT-TYPE: text/xml; charset="utf-8"
[Thread-288] DEBUG 10:40:30.616 Searching for objectId: 0$0$74 with children option: false
[Thread-288] DEBUG 10:40:30.617 Search extension for ctu-x264-greys.anatomy.621.r00
[Thread-288] DEBUG 10:40:30.617 Search extension for ctu-x264-greys.anatomy.621.r01
[Thread-288] DEBUG 10:40:30.617 Search extension for ctu-x264-greys.anatomy.621.r02
[Thread-288] DEBUG 10:40:30.617 Search extension for ctu-x264-greys.anatomy.621.r03
[Thread-288] DEBUG 10:40:30.618 Search extension for ctu-x264-greys.anatomy.621.r04
[Thread-288] DEBUG 10:40:30.618 Search extension for ctu-x264-greys.anatomy.621.r05
[Thread-288] DEBUG 10:40:30.618 Search extension for ctu-x264-greys.anatomy.621.r06
[Thread-288] DEBUG 10:40:30.618 Search extension for ctu-x264-greys.anatomy.621.r07
[Thread-288] DEBUG 10:40:30.618 Search extension for ctu-x264-greys.anatomy.621.r08
[Thread-288] DEBUG 10:40:30.618 Search extension for ctu-x264-greys.anatomy.621.r09
[Thread-288] DEBUG 10:40:30.618 Search extension for ctu-x264-greys.anatomy.621.r10
[Thread-288] DEBUG 10:40:30.619 Search extension for ctu-x264-greys.anatomy.621.r11
[Thread-288] DEBUG 10:40:30.619 Search extension for ctu-x264-greys.anatomy.621.r12
[Thread-288] DEBUG 10:40:30.619 Search extension for ctu-x264-greys.anatomy.621.r13
[Thread-288] DEBUG 10:40:30.619 Search extension for ctu-x264-greys.anatomy.621.r14
[Thread-288] DEBUG 10:40:30.619 Search extension for ctu-x264-greys.anatomy.621.r15
[Thread-288] DEBUG 10:40:30.619 Search extension for ctu-x264-greys.anatomy.621.r16
[Thread-288] DEBUG 10:40:30.619 Search extension for ctu-x264-greys.anatomy.621.r17
[Thread-288] DEBUG 10:40:30.619 Search extension for ctu-x264-greys.anatomy.621.r18
[Thread-288] DEBUG 10:40:30.620 Search extension for ctu-x264-greys.anatomy.621.r19
[Thread-288] DEBUG 10:40:30.620 Search extension for ctu-x264-greys.anatomy.621.r20
[Thread-288] DEBUG 10:40:30.620 Search extension for ctu-x264-greys.anatomy.621.r21
[Thread-288] DEBUG 10:40:30.620 Search extension for ctu-x264-greys.anatomy.621.r22
[Thread-288] DEBUG 10:40:30.620 Search extension for ctu-x264-greys.anatomy.621.sfv
[Thread-288] DEBUG 10:40:30.620 Search extension for greys.anatomy.s06e21.720p.hdtv.x264-ctu.nfo
[Thread-288] DEBUG 10:40:30.621 Wrote on socket: Server: Windows_7-x86-6.1, UPnP/1.0, PMS/1.10.51
[Thread-288] DEBUG 10:40:30.621 Wrote on socket: Content-Length: 884
[Thread-288] DEBUG 10:40:30.621 Wrote on socket:
[Thread-288] DEBUG 10:40:30.621 Close Connection
[Thread-289] DEBUG 10:40:30.679 Opened handler on socket Socket[addr=/192.168.0.117,port=58170,localport=5001]
[Thread-289] DEBUG 10:40:30.679 Received on socket: POST /upnp/control/content_directory HTTP/1.1
[Thread-289] DEBUG 10:40:30.680 Received on socket: X-AV-Client-Info: av=5.0; cn="Sony Computer Entertainment Inc."; mn="PLAYSTATION 3"; mv="1.0";
[Thread-289] DEBUG 10:40:30.689 Received on socket: Host: 192.168.0.147:5001
[Thread-289] DEBUG 10:40:30.689 Received on socket: User-Agent: UPnP/1.0 DLNADOC/1.50
[Thread-289] DEBUG 10:40:30.690 Received on socket: Content-Length: 913
[Thread-289] DEBUG 10:40:30.690 Received on socket: Content-Type: text/xml; charset="utf-8"
[Thread-289] DEBUG 10:40:30.690 Received on socket: SOAPACTION: "urn:schemas-upnp-org:service:ContentDirectory:1#Browse"
[Thread-289] INFO  10:40:30.878 HTTP: upnp/control/content_directory / 0-0
[Thread-289] DEBUG 10:40:30.878 Wrote on socket: HTTP/1.1 200 OK
[Thread-289] DEBUG 10:40:30.878 Wrote on socket: CONTENT-TYPE: text/xml; charset="utf-8"
[Thread-289] DEBUG 10:40:30.878 Searching for objectId: 0$0$74 with children option: true
[Thread-289] DEBUG 10:40:30.879 End of analysis
[Thread-289] DEBUG 10:40:30.879 Wrote on socket: Server: Windows_7-x86-6.1, UPnP/1.0, PMS/1.10.51
[Thread-289] DEBUG 10:40:30.879 Wrote on socket: Content-Length: 1905
[Thread-289] DEBUG 10:40:30.879 Wrote on socket:
[Thread-289] DEBUG 10:40:30.879 Close Connection
[Thread-290] DEBUG 10:40:31.020 Opened handler on socket Socket[addr=/192.168.0.117,port=58169,localport=5001]
[Thread-290] DEBUG 10:40:31.020 Received on socket: POST /upnp/control/content_directory HTTP/1.1
[Thread-290] DEBUG 10:40:31.020 Received on socket: X-AV-Client-Info: av=5.0; cn="Sony Computer Entertainment Inc."; mn="PLAYSTATION 3"; mv="1.0";
[Thread-290] DEBUG 10:40:31.031 Received on socket: Host: 192.168.0.147:5001
[Thread-290] DEBUG 10:40:31.031 Received on socket: User-Agent: UPnP/1.0 DLNADOC/1.50
[Thread-290] DEBUG 10:40:31.031 Received on socket: Content-Length: 276
[Thread-290] DEBUG 10:40:31.031 Received on socket: Content-Type: text/xml; charset="utf-8"
[Thread-290] DEBUG 10:40:31.031 Received on socket: SOAPACTION: "urn:schemas-upnp-org:service:ContentDirectory:1#GetSystemUpdateID"
[Thread-291] DEBUG 10:40:31.095 Opened handler on socket Socket[addr=/192.168.0.117,port=58168,localport=5001]
[Thread-291] DEBUG 10:40:31.095 Received on socket: GET /get/0$0$74$1/thumbnail0000greys.anatomy.s06e21.720p.hdtv.x264-ctu.mkv HTTP/1.1
[Thread-291] DEBUG 10:40:31.095 Received on socket: Host: 192.168.0.147:5001
[Thread-291] DEBUG 10:40:31.095 Received on socket: User-Agent: PLAYSTATION 3
[Thread-291] DEBUG 10:40:31.105 Received on socket: Connection: Keep-Alive
[Thread-291] DEBUG 10:40:31.105 Received on socket: Accept-Encoding: identity
[Thread-291] DEBUG 10:40:31.105 Received on socket: transferMode.dlna.org: Interactive
[Thread-291] INFO  10:40:31.105 HTTP: get/0$0$74$1/thumbnail0000greys.anatomy.s06e21.720p.hdtv.x264-ctu.mkv / 0-0
[Thread-291] DEBUG 10:40:31.105 Wrote on socket: HTTP/1.1 200 OK
[Thread-291] DEBUG 10:40:31.105 Searching for objectId: 0$0$74$1 with children option: false
[Thread-291] DEBUG 10:40:31.105 Wrote on socket: Content-Type: image/png
[Thread-291] DEBUG 10:40:31.105 Wrote on socket: Accept-Ranges: bytes
[Thread-291] DEBUG 10:40:31.105 Wrote on socket: Expires: Sun, 03 Oct 2010 02:27:11 GMT
[Thread-291] DEBUG 10:40:31.105 Wrote on socket: Connection: keep-alive
[Thread-291] DEBUG 10:40:31.105 Wrote on socket: Server: Windows_7-x86-6.1, UPnP/1.0, PMS/1.10.51
[Thread-291] DEBUG 10:40:31.106 Available Content-Length: 3199
[Thread-291] DEBUG 10:40:31.106 Wrote on socket: Content-Length: 3199
[Thread-291] DEBUG 10:40:31.106 Wrote on socket:
[Thread-291] DEBUG 10:40:31.106 Sending stream: 3199 bytes of get/0$0$74$1/thumbnail0000greys.anatomy.s06e21.720p.hdtv.x264-ctu.mkv
[Thread-291] DEBUG 10:40:31.106 Close Connection
[Thread-290] INFO  10:40:31.219 HTTP: upnp/control/content_directory / 0-0
[Thread-290] DEBUG 10:40:31.219 Wrote on socket: HTTP/1.1 200 OK
[Thread-290] DEBUG 10:40:31.219 Wrote on socket: CONTENT-TYPE: text/xml; charset="utf-8"
[Thread-290] DEBUG 10:40:31.219 Wrote on socket: Server: Windows_7-x86-6.1, UPnP/1.0, PMS/1.10.51
[Thread-290] DEBUG 10:40:31.219 Wrote on socket: Content-Length: 335
[Thread-290] DEBUG 10:40:31.219 Wrote on socket:
[Thread-290] DEBUG 10:40:31.219 Close Connection
[Thread-292] DEBUG 10:40:31.221 Opened handler on socket Socket[addr=/192.168.0.117,port=58167,localport=5001]
[Thread-292] DEBUG 10:40:31.222 Received on socket: POST /upnp/control/content_directory HTTP/1.1
[Thread-292] DEBUG 10:40:31.222 Received on socket: X-AV-Client-Info: av=5.0; cn="Sony Computer Entertainment Inc."; mn="PLAYSTATION 3"; mv="1.0";
[Thread-292] DEBUG 10:40:31.232 Received on socket: Host: 192.168.0.147:5001
[Thread-292] DEBUG 10:40:31.232 Received on socket: User-Agent: UPnP/1.0 DLNADOC/1.50
[Thread-292] DEBUG 10:40:31.232 Received on socket: Content-Length: 906
[Thread-292] DEBUG 10:40:31.232 Received on socket: Content-Type: text/xml; charset="utf-8"
[Thread-292] DEBUG 10:40:31.232 Received on socket: SOAPACTION: "urn:schemas-upnp-org:service:ContentDirectory:1#Browse"
[Thread-292] INFO  10:40:31.429 HTTP: upnp/control/content_directory / 0-0
[Thread-292] DEBUG 10:40:31.429 Wrote on socket: HTTP/1.1 200 OK
[Thread-292] DEBUG 10:40:31.429 Wrote on socket: CONTENT-TYPE: text/xml; charset="utf-8"
[Thread-292] DEBUG 10:40:31.429 Searching for objectId: 0$0$74 with children option: false
[Thread-292] DEBUG 10:40:31.430 Search extension for ctu-x264-greys.anatomy.621.r00
[Thread-292] DEBUG 10:40:31.430 Search extension for ctu-x264-greys.anatomy.621.r01
[Thread-292] DEBUG 10:40:31.430 Search extension for ctu-x264-greys.anatomy.621.r02
[Thread-292] DEBUG 10:40:31.430 Search extension for ctu-x264-greys.anatomy.621.r03
[Thread-292] DEBUG 10:40:31.431 Search extension for ctu-x264-greys.anatomy.621.r04
[Thread-292] DEBUG 10:40:31.431 Search extension for ctu-x264-greys.anatomy.621.r05
[Thread-292] DEBUG 10:40:31.431 Search extension for ctu-x264-greys.anatomy.621.r06
[Thread-292] DEBUG 10:40:31.431 Search extension for ctu-x264-greys.anatomy.621.r07
[Thread-292] DEBUG 10:40:31.431 Search extension for ctu-x264-greys.anatomy.621.r08
[Thread-292] DEBUG 10:40:31.431 Search extension for ctu-x264-greys.anatomy.621.r09
[Thread-292] DEBUG 10:40:31.431 Search extension for ctu-x264-greys.anatomy.621.r10
[Thread-292] DEBUG 10:40:31.431 Search extension for ctu-x264-greys.anatomy.621.r11
[Thread-292] DEBUG 10:40:31.432 Search extension for ctu-x264-greys.anatomy.621.r12
[Thread-292] DEBUG 10:40:31.432 Search extension for ctu-x264-greys.anatomy.621.r13
[Thread-292] DEBUG 10:40:31.432 Search extension for ctu-x264-greys.anatomy.621.r14
[Thread-292] DEBUG 10:40:31.432 Search extension for ctu-x264-greys.anatomy.621.r15
[Thread-292] DEBUG 10:40:31.432 Search extension for ctu-x264-greys.anatomy.621.r16
[Thread-292] DEBUG 10:40:31.432 Search extension for ctu-x264-greys.anatomy.621.r17
[Thread-292] DEBUG 10:40:31.432 Search extension for ctu-x264-greys.anatomy.621.r18
[Thread-292] DEBUG 10:40:31.432 Search extension for ctu-x264-greys.anatomy.621.r19
[Thread-292] DEBUG 10:40:31.432 Search extension for ctu-x264-greys.anatomy.621.r20
[Thread-292] DEBUG 10:40:31.433 Search extension for ctu-x264-greys.anatomy.621.r21
[Thread-292] DEBUG 10:40:31.433 Search extension for ctu-x264-greys.anatomy.621.r22
[Thread-292] DEBUG 10:40:31.433 Search extension for ctu-x264-greys.anatomy.621.sfv
[Thread-292] DEBUG 10:40:31.433 Search extension for greys.anatomy.s06e21.720p.hdtv.x264-ctu.nfo
[Thread-292] DEBUG 10:40:31.433 Wrote on socket: Server: Windows_7-x86-6.1, UPnP/1.0, PMS/1.10.51
[Thread-292] DEBUG 10:40:31.433 Wrote on socket: Content-Length: 884
[Thread-292] DEBUG 10:40:31.433 Wrote on socket:
[Thread-292] DEBUG 10:40:31.434 Close Connection
[Thread-293] DEBUG 10:40:33.286 Opened handler on socket Socket[addr=/192.168.0.117,port=58166,localport=5001]
[Thread-293] DEBUG 10:40:33.286 Received on socket: POST /upnp/control/content_directory HTTP/1.1
[Thread-293] DEBUG 10:40:33.286 Received on socket: X-AV-Client-Info: av=5.0; cn="Sony Computer Entertainment Inc."; mn="PLAYSTATION 3"; mv="1.0";
[Thread-293] DEBUG 10:40:33.296 Received on socket: Host: 192.168.0.147:5001
[Thread-293] DEBUG 10:40:33.296 Received on socket: User-Agent: UPnP/1.0 DLNADOC/1.50
[Thread-293] DEBUG 10:40:33.296 Received on socket: Content-Length: 276
[Thread-293] DEBUG 10:40:33.296 Received on socket: Content-Type: text/xml; charset="utf-8"
[Thread-293] DEBUG 10:40:33.296 Received on socket: SOAPACTION: "urn:schemas-upnp-org:service:ContentDirectory:1#GetSystemUpdateID"
[Thread-294] DEBUG 10:40:33.330 Opened handler on socket Socket[addr=/192.168.0.117,port=58165,localport=5001]
[Thread-294] DEBUG 10:40:33.330 Received on socket: HEAD /get/0$0$74$1/greys.anatomy.s06e21.720p.hdtv.x264-ctu.mkv HTTP/1.0
[Thread-294] DEBUG 10:40:33.330 Received on socket: Host: 192.168.0.147:5001
[Thread-294] DEBUG 10:40:33.330 Received on socket: User-Agent: PLAYSTATION 3
[Thread-294] DEBUG 10:40:33.341 Received on socket: Connection: close
[Thread-294] DEBUG 10:40:33.341 Received on socket: Accept-Encoding: identity
[Thread-294] DEBUG 10:40:33.341 Received on socket: Cache-Control: no-cache
[Thread-294] INFO  10:40:33.341 HTTP: get/0$0$74$1/greys.anatomy.s06e21.720p.hdtv.x264-ctu.mkv / 0-0
[Thread-294] DEBUG 10:40:33.341 Wrote on socket: HTTP/1.0 200 OK
[Thread-294] DEBUG 10:40:33.341 Searching for objectId: 0$0$74$1 with children option: false
[Thread-294] DEBUG 10:40:33.341 Asked stream chunk [0-0] timeseek: 0.0 of greys.anatomy.s06e21.720p.hdtv.x264-ctu.mkv and player MEncoder
[Thread-294] TRACE 10:40:33.341 Starting transcode/remux of greys.anatomy.s06e21.720p.hdtv.x264-ctu.mkv
[Thread-294] DEBUG 10:40:33.341 Searching an audio track with lang: eng
[Thread-294] DEBUG 10:40:33.341 Searching an audio track with lang: fre
[Thread-294] DEBUG 10:40:33.342 Searching an audio track with lang: jpn
[Thread-294] DEBUG 10:40:33.342 Searching an audio track with lang: ger
[Thread-294] DEBUG 10:40:33.342 Choosed a default audio track: Audio: AC3 / lang: und / ID: 0
[Thread-294] DEBUG 10:40:33.343 Searching a subtitle track with lang: eng
[Thread-294] DEBUG 10:40:33.343 Searching a subtitle track with lang: fre
[Thread-294] DEBUG 10:40:33.344 Searching a subtitle track with lang: jpn
[Thread-294] DEBUG 10:40:33.344 Searching a subtitle track with lang: ger
[Thread-294] DEBUG 10:40:33.345 Searching a subtitle track with lang: eng
[Thread-294] DEBUG 10:40:33.345 Searching a subtitle track with lang: fre
[Thread-294] DEBUG 10:40:33.345 Searching a subtitle track with lang: jpn
[Thread-294] DEBUG 10:40:33.345 Searching a subtitle track with lang: ger
[Thread-294] INFO  10:40:33.345 Creating pipe \\.\pipe\1276072833345ffmpegvideo
[Thread-294] INFO  10:40:33.345 Creating pipe \\.\pipe\1276072833345videoout
[Thread-296] INFO  10:40:33.345 Waiting for pipe connection \\.\pipe\1276072833345ffmpegvideo
[Thread-297] INFO  10:40:33.346 Waiting for pipe connection \\.\pipe\1276072833345videoout
[Thread-294] INFO  10:40:33.346 Creating pipe \\.\pipe\1276072833346ffmpegaudio01
[Thread-294] INFO  10:40:33.346 Creating pipe \\.\pipe\1276072833346audioout
[Thread-300] INFO  10:40:33.346 Waiting for pipe connection \\.\pipe\1276072833346ffmpegaudio01
[Thread-301] INFO  10:40:33.346 Waiting for pipe connection \\.\pipe\1276072833346audioout
[Thread-294] INFO  10:40:33.347 Creating pipe \\.\pipe\1276072833347tsmuxerout.ts
[Thread-303] INFO  10:40:33.347 Waiting for pipe connection \\.\pipe\1276072833347tsmuxerout.ts
[win32/mencoder.exe] INFO  10:40:33.448 Starting C:\Program Files (x86)\PS3 Media Server\win32\mencoder.exe -ss 0 F:\torrents\Greys.Anatomy.S06E21.720p.HDTV.x264-CTU\greys.anatomy.s06e21.720p.hdtv.x264-ctu.mkv -quiet -quiet -really-quiet -msglevel statusline=-1:mencoder=-1 -ovc copy -nosound -mc 0 -noskip -of rawvideo -o \\.\pipe\1276072833345ffmpegvideo
[win32/mencoder.exe] INFO  10:40:33.449 Attaching thread: win32/mencoder.exe
[Thread-296] INFO  10:40:33.476 Result of \\.\pipe\1276072833345ffmpegvideo : true
[Thread-293] INFO  10:40:33.485 HTTP: upnp/control/content_directory / 0-0
[Thread-293] DEBUG 10:40:33.485 Wrote on socket: HTTP/1.1 200 OK
[Thread-293] DEBUG 10:40:33.485 Wrote on socket: CONTENT-TYPE: text/xml; charset="utf-8"
[Thread-293] DEBUG 10:40:33.485 Wrote on socket: Server: Windows_7-x86-6.1, UPnP/1.0, PMS/1.10.51
[Thread-293] DEBUG 10:40:33.485 Wrote on socket: Content-Length: 335
[Thread-293] DEBUG 10:40:33.485 Wrote on socket:
[Thread-293] DEBUG 10:40:33.485 Close Connection
[Thread-307] DEBUG 10:40:33.487 Opened handler on socket Socket[addr=/192.168.0.117,port=58164,localport=5001]
[Thread-307] DEBUG 10:40:33.487 Received on socket: POST /upnp/control/content_directory HTTP/1.1
[Thread-307] DEBUG 10:40:33.487 Received on socket: X-AV-Client-Info: av=5.0; cn="Sony Computer Entertainment Inc."; mn="PLAYSTATION 3"; mv="1.0";
[Thread-307] DEBUG 10:40:33.494 Received on socket: Host: 192.168.0.147:5001
[Thread-307] DEBUG 10:40:33.494 Received on socket: User-Agent: UPnP/1.0 DLNADOC/1.50
[Thread-307] DEBUG 10:40:33.494 Received on socket: Content-Length: 906
[Thread-307] DEBUG 10:40:33.494 Received on socket: Content-Type: text/xml; charset="utf-8"
[Thread-307] DEBUG 10:40:33.494 Received on socket: SOAPACTION: "urn:schemas-upnp-org:service:ContentDirectory:1#Browse"
[win32/mencoder.exe] INFO  10:40:33.548 Starting C:\Program Files (x86)\PS3 Media Server\win32\mencoder.exe -ss 0 F:\torrents\Greys.Anatomy.S06E21.720p.HDTV.x264-CTU\greys.anatomy.s06e21.720p.hdtv.x264-ctu.mkv -quiet -quiet -really-quiet -msglevel statusline=-1:mencoder=-1 -channels 2 -ovc copy -of rawaudio -mc 0 -noskip -oac lavc -fafmttag 0x2000 -lavcopts acodec=ac3:abitrate=384 -af lavcresample=48000 -srate 48000 -quiet -quiet -o \\.\pipe\1276072833346ffmpegaudio01
[win32/mencoder.exe] INFO  10:40:33.550 Attaching thread: win32/mencoder.exe
[Thread-300] INFO  10:40:33.575 Result of \\.\pipe\1276072833346ffmpegaudio01 : true
[win32/tsMuxeR.exe] INFO  10:40:33.650 Starting C:\Program Files (x86)\PS3 Media Server\win32\tsMuxeR.exe C:\Users\leper\AppData\Local\Temp\javaps3media\pms-tsmuxer.meta \\.\pipe\1276072833347tsmuxerout.ts
[win32/tsMuxeR.exe] INFO  10:40:33.651 Reading pipe: \\.\pipe\1276072833347tsmuxerout.ts
[Thread-307] INFO  10:40:33.707 HTTP: upnp/control/content_directory / 0-0
[Thread-307] DEBUG 10:40:33.707 Wrote on socket: HTTP/1.1 200 OK
[Thread-307] DEBUG 10:40:33.707 Wrote on socket: CONTENT-TYPE: text/xml; charset="utf-8"
[Thread-307] DEBUG 10:40:33.707 Searching for objectId: 0$0$74 with children option: false
[Thread-307] DEBUG 10:40:33.708 Search extension for ctu-x264-greys.anatomy.621.r00
[Thread-307] DEBUG 10:40:33.708 Search extension for ctu-x264-greys.anatomy.621.r01
[Thread-307] DEBUG 10:40:33.708 Search extension for ctu-x264-greys.anatomy.621.r02
[Thread-307] DEBUG 10:40:33.708 Search extension for ctu-x264-greys.anatomy.621.r03
[Thread-307] DEBUG 10:40:33.708 Search extension for ctu-x264-greys.anatomy.621.r04
[Thread-307] DEBUG 10:40:33.708 Search extension for ctu-x264-greys.anatomy.621.r05
[Thread-307] DEBUG 10:40:33.709 Search extension for ctu-x264-greys.anatomy.621.r06
[Thread-307] DEBUG 10:40:33.709 Search extension for ctu-x264-greys.anatomy.621.r07
[Thread-307] DEBUG 10:40:33.709 Search extension for ctu-x264-greys.anatomy.621.r08
[Thread-307] DEBUG 10:40:33.709 Search extension for ctu-x264-greys.anatomy.621.r09
[Thread-307] DEBUG 10:40:33.709 Search extension for ctu-x264-greys.anatomy.621.r10
[Thread-307] DEBUG 10:40:33.709 Search extension for ctu-x264-greys.anatomy.621.r11
[Thread-307] DEBUG 10:40:33.709 Search extension for ctu-x264-greys.anatomy.621.r12
[Thread-307] DEBUG 10:40:33.709 Search extension for ctu-x264-greys.anatomy.621.r13
[Thread-307] DEBUG 10:40:33.709 Search extension for ctu-x264-greys.anatomy.621.r14
[Thread-307] DEBUG 10:40:33.709 Search extension for ctu-x264-greys.anatomy.621.r15
[Thread-307] DEBUG 10:40:33.709 Search extension for ctu-x264-greys.anatomy.621.r16
[Thread-307] DEBUG 10:40:33.709 Search extension for ctu-x264-greys.anatomy.621.r17
[Thread-307] DEBUG 10:40:33.710 Search extension for ctu-x264-greys.anatomy.621.r18
[Thread-307] DEBUG 10:40:33.710 Search extension for ctu-x264-greys.anatomy.621.r19
[Thread-307] DEBUG 10:40:33.710 Search extension for ctu-x264-greys.anatomy.621.r20
[Thread-307] DEBUG 10:40:33.710 Search extension for ctu-x264-greys.anatomy.621.r21
[Thread-307] DEBUG 10:40:33.710 Search extension for ctu-x264-greys.anatomy.621.r22
[Thread-307] DEBUG 10:40:33.710 Search extension for ctu-x264-greys.anatomy.621.sfv
[Thread-307] DEBUG 10:40:33.710 Search extension for greys.anatomy.s06e21.720p.hdtv.x264-ctu.nfo
[Thread-307] DEBUG 10:40:33.710 Wrote on socket: Server: Windows_7-x86-6.1, UPnP/1.0, PMS/1.10.51
[Thread-307] DEBUG 10:40:33.710 Wrote on socket: Content-Length: 884
[Thread-307] DEBUG 10:40:33.710 Wrote on socket:
[Thread-307] DEBUG 10:40:33.711 Close Connection
[win32/tsMuxeR.exe] INFO  10:40:33.732 Attaching thread: win32/tsMuxeR.exe
[Timer-15] DEBUG 10:40:33.733 Buffered Space: 0 bytes / inputs: 0
[Thread-314] DEBUG 10:40:33.762 SmartLabs tsMuxeR.  Version 1.8.18(b) http://www.smlabs.net
[Thread-297] INFO  10:40:33.963 Forced reconnection of \\.\pipe\1276072833345videoout with result : true
[Thread-301] INFO  10:40:33.963 Forced reconnection of \\.\pipe\1276072833346audioout with result : true
[Thread-297] INFO  10:40:33.963 Result of \\.\pipe\1276072833345videoout : true
[Thread-301] INFO  10:40:33.963 Result of \\.\pipe\1276072833346audioout : true
[Thread-314] DEBUG 10:40:33.965 Decoding H264 stream (track 1): Profile: High@3.1  Resolution: 1280:720p  Frame rate: 23.976
[Thread-314] DEBUG 10:40:33.965 Change H264 level from 3.1 to 4.1
[Thread-303] INFO  10:40:33.968 Result of \\.\pipe\1276072833347tsmuxerout.ts : true
[Thread-314] DEBUG 10:40:33.969 H264 bitstream changed: insert nal unit delimiters
[Thread-314] DEBUG 10:40:33.969 H264 bitstream changed: insert pict timing and buffering period SEI units
[Thread-314] DEBUG 10:40:33.969 Decoding AC3 stream (track 2): Bitrate: 384Kbps Sample Rate: 48KHz Channels: 2
[Thread-314] DEBUG 10:40:33.971 B-pyramid level 1 detected. Shift DTS to 2 frames
[Thread-312] DEBUG 10:40:35.556 freeMemory: 27981592
[Thread-312] DEBUG 10:40:35.556 totalMemory: 112779264
[Thread-312] DEBUG 10:40:35.556 maxMemory: 778502144
[Thread-312] DEBUG 10:40:35.556 Extending buffer to 104857600
[Thread-312] DEBUG 10:40:35.683 Done extending
[Timer-15] DEBUG 10:40:35.734 Buffered Space: 54000000 bytes / inputs: 0
[Timer-15] DEBUG 10:40:37.734 Buffered Space: 99000000 bytes / inputs: 0
[Thread-294] DEBUG 10:40:38.649 Wrote on socket: Content-Type: video/mpeg
[Thread-294] DEBUG 10:40:38.649 Wrote on socket: Connection: keep-alive
[Thread-294] DEBUG 10:40:38.650 Wrote on socket: Server: Windows_7-x86-6.1, UPnP/1.0, PMS/1.10.51
[Thread-294] DEBUG 10:40:38.650 Wrote on socket:
[Thread-294] DEBUG 10:40:38.650 Sending stream: 0 bytes of get/0$0$74$1/greys.anatomy.s06e21.720p.hdtv.x264-ctu.mkv
[Thread-294] DEBUG 10:40:38.650 Ready to Stop: true
[Thread-294] DEBUG 10:40:38.650 Close Connection
[Thread-316] DEBUG 10:40:38.652 Opened handler on socket Socket[addr=/192.168.0.117,port=58163,localport=5001]
[Thread-316] DEBUG 10:40:38.653 Received on socket: GET /get/0$0$74$1/greys.anatomy.s06e21.720p.hdtv.x264-ctu.mkv HTTP/1.0
[Thread-316] DEBUG 10:40:38.653 Received on socket: Host: 192.168.0.147:5001
[Thread-316] DEBUG 10:40:38.653 Received on socket: User-Agent: PLAYSTATION 3
[Thread-316] DEBUG 10:40:38.660 Received on socket: Connection: close
[Thread-316] DEBUG 10:40:38.660 Received on socket: Accept-Encoding: identity
[Thread-316] DEBUG 10:40:38.660 Received on socket: Cache-Control: no-cache
[Thread-316] INFO  10:40:38.660 HTTP: get/0$0$74$1/greys.anatomy.s06e21.720p.hdtv.x264-ctu.mkv / 0-0
[Thread-316] DEBUG 10:40:38.660 Wrote on socket: HTTP/1.0 200 OK
[Thread-316] DEBUG 10:40:38.660 Searching for objectId: 0$0$74$1 with children option: false
[Thread-316] DEBUG 10:40:38.660 Asked stream chunk [0-0] timeseek: 0.0 of greys.anatomy.s06e21.720p.hdtv.x264-ctu.mkv and player MEncoder
[Thread-316] DEBUG 10:40:38.660 Ready to Stop: false
[Thread-316] DEBUG 10:40:38.660 Wrote on socket: Content-Type: video/mpeg
[Thread-316] DEBUG 10:40:38.660 Wrote on socket: Connection: keep-alive
[Thread-316] DEBUG 10:40:38.660 Wrote on socket: Server: Windows_7-x86-6.1, UPnP/1.0, PMS/1.10.51
[Thread-316] DEBUG 10:40:38.660 Wrote on socket:
[Thread-316] DEBUG 10:40:38.664 Sending stream with premature end : 65536 bytes of get/0$0$74$1/greys.anatomy.s06e21.720p.hdtv.x264-ctu.mkv. Reason: An existing connection was forcibly closed by the remote host
[Thread-316] DEBUG 10:40:38.664 Ready to Stop: true
[Thread-316] DEBUG 10:40:38.664 Sending stream: 65536 bytes of get/0$0$74$1/greys.anatomy.s06e21.720p.hdtv.x264-ctu.mkv
[Thread-316] DEBUG 10:40:38.665 Close Connection
[Thread-319] DEBUG 10:40:38.666 Opened handler on socket Socket[addr=/192.168.0.117,port=58162,localport=5001]
[Thread-319] DEBUG 10:40:38.666 Received on socket: GET /get/0$0$74$1/greys.anatomy.s06e21.720p.hdtv.x264-ctu.mkv HTTP/1.1
[Thread-319] DEBUG 10:40:38.666 Received on socket: Host: 192.168.0.147:5001
[Thread-319] DEBUG 10:40:38.666 Received on socket: User-Agent: PLAYSTATION 3
[Thread-319] DEBUG 10:40:38.674 Received on socket: Connection: Keep-Alive
[Thread-319] DEBUG 10:40:38.674 Received on socket: Accept-Encoding: identity
[Thread-319] DEBUG 10:40:38.674 Received on socket: transferMode.dlna.org: Streaming
[Thread-319] DEBUG 10:40:38.674 Received on socket: TimeSeekRange.dlna.org: npt=0.000-
[Thread-319] INFO  10:40:38.674 HTTP: get/0$0$74$1/greys.anatomy.s06e21.720p.hdtv.x264-ctu.mkv / 0-0
[Thread-319] DEBUG 10:40:38.674 Wrote on socket: HTTP/1.1 200 OK
[Thread-319] DEBUG 10:40:38.674 Searching for objectId: 0$0$74$1 with children option: false
[Thread-319] DEBUG 10:40:38.674 Asked stream chunk [0-0] timeseek: 0.0 of greys.anatomy.s06e21.720p.hdtv.x264-ctu.mkv and player MEncoder
[Thread-319] DEBUG 10:40:38.674 Ready to Stop: false
[Thread-319] DEBUG 10:40:38.674 Wrote on socket: Content-Type: video/mpeg
[Thread-319] DEBUG 10:40:38.674 Wrote on socket: Connection: keep-alive
[Thread-319] DEBUG 10:40:38.674 Wrote on socket: Server: Windows_7-x86-6.1, UPnP/1.0, PMS/1.10.51
[Thread-319] DEBUG 10:40:38.674 Wrote on socket:
[Thread-319] DEBUG 10:40:39.235 Sending stream with premature end : 6389760 bytes of get/0$0$74$1/greys.anatomy.s06e21.720p.hdtv.x264-ctu.mkv. Reason: An existing connection was forcibly closed by the remote host
[Thread-319] DEBUG 10:40:39.235 Ready to Stop: true
[Thread-319] DEBUG 10:40:39.235 Sending stream: 6389760 bytes of get/0$0$74$1/greys.anatomy.s06e21.720p.hdtv.x264-ctu.mkv
[Thread-319] DEBUG 10:40:39.236 Close Connection
[Timer-15] DEBUG 10:40:39.734 Buffered Space: 105500000 bytes / inputs: 0
[Thread-315] INFO  10:40:41.151 Stopping process: win32/tsMuxeR.exe
[Thread-295] INFO  10:40:41.151 Error :null
[Thread-315] INFO  10:40:41.151 Stopping process: win32/mencoder.exe
[Thread-315] INFO  10:40:41.151 Destroying buffer
[Thread-318] INFO  10:40:41.255 Destroying buffer
[Thread-317] INFO  10:40:41.255 Destroying buffer
[Thread-303] INFO  10:40:41.296 Error: null
[Thread-315] INFO  10:40:41.338 Stopping process: win32/mencoder.exe
[Thread-299] INFO  10:40:41.338 Error :null
[Thread-300] INFO  10:40:41.338 Error: null
[Thread-297] INFO  10:40:41.296 Disconnected pipe: \\.\pipe\1276072833345videoout
[Thread-296] INFO  10:40:41.296 Error: null
[win32/mencoder.exe] DEBUG 10:40:41.295 EOF
[Thread-315] INFO  10:40:41.598 Destroying buffer
[Thread-301] INFO  10:40:41.338 Disconnected pipe: \\.\pipe\1276072833346audioout
[win32/mencoder.exe] DEBUG 10:40:41.677 EOF
[Thread-315] INFO  10:40:41.716 Destroying buffer
[Thread-320] INFO  10:40:41.792 Destroying buffer
[Thread-321] INFO  10:40:41.792 Destroying buffer
[Thread-315] INFO  10:40:41.869 Destroying buffer
[win32/tsMuxeR.exe] DEBUG 10:40:42.296 EOF
[win32/tsMuxeR.exe] INFO  10:40:42.296 Stopping process: win32/mencoder.exe
[win32/tsMuxeR.exe] INFO  10:40:42.296 Destroying buffer
[win32/tsMuxeR.exe] INFO  10:40:42.411 Stopping process: win32/mencoder.exe
[win32/tsMuxeR.exe] INFO  10:40:42.411 Destroying buffer


what can I do to prevent this? I've tried both the beta release and the stable, no difference. is it a problem with some transcoder .exe file and if so, can it be changed to a newer version to prevent the issue?
leper
 
Posts: 1
Joined: Wed Jun 09, 2010 8:26 am

Re: Data type not supported on some files... any ideas?

Postby Ferrerave » Sat Oct 02, 2010 9:58 am

Did you have any luck solving this problem? Cause I'm having the same problem. All other mkv files play out nicely but for some reason i cant get ctu.mkv files to play out correctly on the ps3 media server. All i get is unsupported data. Playing through the transcoding folder I get "unsupported data" for both mencoder and tsMuxer. Using Avisynth/Mencoder option works but then the sound gets all choppy.

I have tried the following solutions -
Checked remuxing when audio type is AC3 - results: no luck
followed this thread- viewtopic.php?f=6&t=4034 - no luck
Using both latest stable and beta versions - no luck

Transcoding log on the pms doesn't register any anomalies when playing the file.

Any help would be gladly appreciated
Ferrerave
 
Posts: 4
Joined: Tue May 04, 2010 8:25 pm

Re: Data type not supported on some files... any ideas?

Postby devildog93 » Sat Oct 02, 2010 2:02 pm

If it is specific to certain releases, post the MediaInfo so we can see.

Other posts were from 2-3 months ago, things can change with mux programs, etc.
User avatar
devildog93
 
Posts: 1301
Joined: Fri Mar 19, 2010 8:37 pm

Re: Data type not supported on some files... any ideas?

Postby Ferrerave » Sun Oct 03, 2010 12:16 am

Thanks for the answer devildog93
Posting the mediainfo code aswell as some background data

Code: Select all
General
Complete name                    : E:\DC Downloads\the.big.bang.theory.s04e01.720p.hdtv.x264-ctu.mkv
Format                           : Matroska
File size                        : 559 MiB
Duration                         : 21mn 3s
Overall bit rate                 : 3 711 Kbps
Encoded date                     : UTC 2010-02-22 21:41:29
Writing application              : no_variable_data
Writing library                  : no_variable_data

Video
ID                               : 2
Format                           : AVC
Format/Info                      : Advanced Video Codec
Format profile                   : High@L3.1
Format settings, CABAC           : Yes
Format settings, ReFrames        : 3 frames
Muxing mode                      : Container profile=Unknown@3.1
Codec ID                         : V_MPEG4/ISO/AVC
Duration                         : 21mn 3s
Bit rate                         : 3 326 Kbps
Width                            : 1 280 pixels
Height                           : 720 pixels
Display aspect ratio             : 16:9
Frame rate                       : 23.976 fps
Color space                      : YUV
Chroma subsampling               : 4:2:0
Bit depth                        : 8 bits
Scan type                        : Progressive
Bits/(Pixel*Frame)               : 0.151
Stream size                      : 490 MiB (88%)
Writing library                  : x264 core 85 r1442tw
Encoding settings                : cabac=1 / ref=3 / deblock=1:0:0 / analyse=0x3:0x113 / me=hex / subme=6 / psy=1 / psy_rd=1.00:0.00 / mixed_ref=1 / me_range=16 / chroma_me=1 / trellis=1 / 8x8dct=1 / cqm=0 / deadzone=21,11 / fast_pskip=1 / chroma_qp_offset=-2 / threads=25 / sliced_threads=0 / nr=0 / decimate=1 / mbaff=0 / constrained_intra=0 / bframes=3 / b_pyramid=1 / b_adapt=1 / b_bias=0 / direct=1 / wpredb=1 / wpredp=0 / keyint=240 / keyint_min=24 / scenecut=40 / intra_refresh=0 / rc_lookahead=40 / rc=2pass / mbtree=1 / bitrate=3326 / ratetol=1.0 / qcomp=0.60 / qpmin=10 / qpmax=51 / qpstep=4 / cplxblur=20.0 / qblur=0.5 / ip_ratio=1.40 / aq=1:1.00
Language                         : English

Audio
ID                               : 1
Format                           : AC-3
Format/Info                      : Audio Coding 3
Mode extension                   : CM (complete main)
Codec ID                         : A_AC3
Duration                         : 21mn 3s
Bit rate mode                    : Constant
Bit rate                         : 384 Kbps
Channel(s)                       : 6 channels
Channel positions                : Front: L C R, Side: L R, LFE
Sampling rate                    : 48.0 KHz
Bit depth                        : 16 bits
Stream size                      : 57.8 MiB (10%)


Running PMS (v1.20.049) on a i5 750 2.3GHz, 4Gb RAM and Win 7 64-bits system with k-lite codec pack (32 and 64 bits) v. 6.4.0/v3.9.0
Streaming it to a PS3 using wired 100Mbit connection.
Like I mentioned from the previous post I have tried transcoding it with all three types where both MEncoder and TSmuxer gave "unsupported data" error and Avisynth/MEncoder giving choppy sound

Thanks in advance
Ferrerave
 
Posts: 4
Joined: Tue May 04, 2010 8:25 pm

Re: Data type not supported on some files... any ideas?

Postby datdamnmachine » Sun Oct 17, 2010 6:52 am

Same problem here:

PS3 Media Server version 1.10.51
Windows 7 Ultimate 64-bit
Core 2 Dueo E7300 2.66GHz
8GB RAM
Mencoder versions 32198 and 31170 (both generate this problem)

Media Info attached.

Code: Select all
General
Complete name                    : D:\MOVIES\[Coalgirls]_Star_Driver_01_(1280x720_H.264_AAC)_[6AE60E0B].mkv
Format                           : Matroska
File size                        : 461 MiB
Duration                         : 24mn 15s
Overall bit rate                 : 2 658 Kbps
Movie name                       : Star Driver 01
Encoded date                     : UTC 2010-10-04 04:07:59
Writing application              : mkvmerge v4.3.0 ('Escape from the Island') built on Sep  5 2010 10:30:51
Writing library                  : libebml v1.0.0 + libmatroska v1.0.0
Cover                            : Yes / Yes / Yes / Yes / Yes / Yes / Yes

Video
ID                               : 1
Format                           : AVC
Format/Info                      : Advanced Video Codec
Format profile                   : High@L4.0
Format settings, CABAC           : Yes
Format settings, ReFrames        : 8 frames
Muxing mode                      : Container profile=Unknown@4.0
Codec ID                         : V_MPEG4/ISO/AVC
Duration                         : 24mn 15s
Width                            : 1 280 pixels
Height                           : 720 pixels
Display aspect ratio             : 16:9
Frame rate                       : 23.976 fps
Color space                      : YUV
Chroma subsampling               : 4:2:0
Bit depth                        : 8 bits
Scan type                        : Progressive
Title                            : Star Driver 01
Writing library                  : x264 core 105 r1724 b02df7b
Encoding settings                : cabac=1 / ref=8 / deblock=1:0:0 / analyse=0x3:0x133 / me=umh / subme=9 / psy=1 / psy_rd=0.80:0.20 / mixed_ref=1 / me_range=24 / chroma_me=1 / trellis=2 / 8x8dct=1 / cqm=0 / deadzone=21,11 / fast_pskip=1 / chroma_qp_offset=-3 / threads=3 / sliced_threads=0 / nr=0 / decimate=1 / interlaced=0 / constrained_intra=0 / bframes=8 / b_pyramid=2 / b_adapt=2 / b_bias=0 / direct=3 / weightb=1 / open_gop=0 / weightp=2 / keyint=250 / keyint_min=23 / scenecut=40 / intra_refresh=0 / rc_lookahead=40 / rc=crf / mbtree=1 / crf=18.0 / qcomp=0.60 / qpmin=10 / qpmax=51 / qpstep=4 / ip_ratio=1.40 / aq=1:1.00

Audio
ID                               : 2
Format                           : AAC
Format/Info                      : Advanced Audio Codec
Format version                   : Version 4
Format profile                   : LC
Format settings, SBR             : No
Codec ID                         : A_AAC
Duration                         : 24mn 15s
Channel(s)                       : 2 channels
Channel positions                : Front: L R
Sampling rate                    : 48.0 KHz
Title                            : 2.0 AAC
Language                         : Japanese

Text
ID                               : 3
Format                           : ASS
Codec ID                         : S_TEXT/ASS
Codec ID/Info                    : Advanced Sub Station Alpha
Title                            : English
Language                         : English

Menu
00:00:00.000                     : en:Part One
00:09:51.132                     : en:Opening
00:11:21.097                     : en:Part Two
00:22:27.137                     : en:Ending
00:23:57.102                     : en:Preview


EDIT:

Debug log located here:

http://uploading.com/files/37aad7bd/Sta ... Debug.zip/

Forum telling me board quota has been reached...
datdamnmachine
 
Posts: 49
Joined: Wed Sep 22, 2010 3:32 am

Re: Data type not supported on some files... any ideas?

Postby datdamnmachine » Mon Oct 25, 2010 3:35 am

I had some problems dealing with MKV's with both the stable and beta builds of PMS. I created this thread here:

Problems With MKV's Using FLAC w/5.1 Surround Sound

viewtopic.php?f=6&t=8138

I followed what this person did in this thread:

Solved - MKV files & data unsupported / corrupted messages

viewtopic.php?f=6&t=7894

It ended up solving my problem with MKV's not playing and me getting data corruption messages.
datdamnmachine
 
Posts: 49
Joined: Wed Sep 22, 2010 3:32 am

Previous

Return to General Help and Support

Who is online

Users browsing this forum: No registered users and 20 guests