getting scrambled audio

For help and support with PS3 Media Server in general
Forum rules
Please make sure you follow the Problem Reporting Guidelines before posting if you want a reply.

getting scrambled audio

Postby dipzone » Sun Jun 28, 2009 8:00 am

i have a bluray movie in mkv format. when i play it from my ps3 using PSM i get scrambled audio. the video is normal.
dipzone
 
Posts: 5
Joined: Thu Jun 04, 2009 1:34 pm

Re: getting scrambled audio

Postby meskibob » Sun Jun 28, 2009 4:05 pm

Need more info: viewtopic.php?f=6&t=496
Plus post the MediaInfo for the file: http://mediainfo.sourceforge.net
I provide NO application support via PM or email, so please post your question to the forum per the Forum Rules.
meskibob
Moderator
 
Posts: 4760
Joined: Mon Jan 19, 2009 4:11 pm

Re: getting scrambled audio

Postby dipzone » Tue Jun 30, 2009 5:43 pm

1cpu is dual core 2 and win vista and 1 gb ram.
2ethernet 100Mbits
3 while playing the mkv on ps3 i get scrambled audio. video works perfectly
4 tried all d engines. mainly mencoder






MEDIAINFO
General
Complete name : D:\Downloads\Movies\Matrix.Trilogy.720p.HDDVD.DTS.x264-ESiR\The.Matrix.1999.720p.HDDVD.DTS.x264-ESiR.mkv
Format : Matroska
File size : 7.85 GiB
Duration : 2h 16mn
Overall bit rate : 8 242 Kbps
Movie name : The.Matrix.1999.720p.HDDVD.DTS.x264-ESiR
Encoded date : UTC 2007-05-27 23:35:47
Writing application : mkvmerge v2.0.2 ('You're My Flame') built on Feb 21 2007 23:40:55
Writing library : libebml v0.7.7 + libmatroska v0.8.1
Cover : Yes / Yes / Yes / Yes / Yes / Yes / Yes / Yes

Video
ID : 1
Format : AVC
Format/Info : Advanced Video Codec
Format profile : High@L5.1
Format settings, CABAC : Yes
Format settings, ReFrames : 9 frames
Muxing mode : Container profile=Unknown@5.1
Codec ID : V_MPEG4/ISO/AVC
Duration : 2h 16mn
Bit rate : 6 248 Kbps
Nominal bit rate : 6 420 Kbps
Width : 1 280 pixels
Height : 532 pixels
Display aspect ratio : 2.406
Frame rate : 23.976 fps
Resolution : 24 bits
Colorimetry : 4:2:0
Scan type : Progressive
Bits/(Pixel*Frame) : 0.383
Stream size : 5.94 GiB (76%)
Title : The Matrix
Writing library : x264 core 55
Encoding settings : cabac=1 / ref=6 / deblock=1:-1:-1 / analyse=0x3:0x133 / me=hex / subme=7 / brdo=1 / mixed_ref=1 / me_range=16 / chroma_me=1 / trellis=1 / 8x8dct=1 / cqm=2 / deadzone=21,11 / chroma_qp_offset=0 / threads=2 / nr=0 / decimate=0 / mbaff=0 / bframes=4 / b_pyramid=1 / b_adapt=1 / b_bias=0 / direct=1 / wpredb=1 / bime=1 / keyint=250 / keyint_min=25 / scenecut=40(pre) / rc=2pass / bitrate=6420 / ratetol=1.0 / rceq='blurCplx^(1-qComp)' / qcomp=0.60 / qpmin=10 / qpmax=51 / qpstep=4 / cplxblur=20.0 / qblur=0.5 / ip_ratio=1.40 / pb_ratio=1.30 / aq=1:0.5:18.0
Language : English

Audio #1
ID : 2
Format : DTS
Format/Info : Digital Theater Systems
Codec ID : A_DTS
Duration : 2h 16mn
Bit rate mode : Constant
Bit rate : 1 510 Kbps
Channel(s) : 6 channels
Channel positions : Front: L C R, Surround: L R, LFE
Sampling rate : 48.0 KHz
Resolution : 24 bits
Stream size : 1.44 GiB (18%)
Title : DTS 5.1 @ 1.5 Mbps
Language : English

Audio #2
ID : 3
Format : Vorbis
Format settings, Floor : 1
Codec ID : A_VORBIS
Duration : 2h 16mn
Bit rate mode : Constant
Bit rate : 80.0 Kbps
Channel(s) : 2 channels
Sampling rate : 48.0 KHz
Stream size : 78.0 MiB (1%)
Title : Commentary 1
Writing library : libVorbis 1.1.1/1.1.2 (UTC 2005-03-04)
Language : English

Audio #3
ID : 4
Format : Vorbis
Format settings, Floor : 1
Codec ID : A_VORBIS
Duration : 2h 16mn
Bit rate mode : Constant
Bit rate : 80.0 Kbps
Channel(s) : 2 channels
Sampling rate : 48.0 KHz
Stream size : 78.0 MiB (1%)
Title : Commentary 2
Writing library : libVorbis 1.1.1/1.1.2 (UTC 2005-03-04)
Language : English

Audio #4
ID : 5
Format : Vorbis
Format settings, Floor : 1
Codec ID : A_VORBIS
Duration : 2h 16mn
Bit rate mode : Constant
Bit rate : 80.0 Kbps
Channel(s) : 2 channels
Sampling rate : 48.0 KHz
Stream size : 78.0 MiB (1%)
Title : Commentary 3
Writing library : libVorbis 1.1.1/1.1.2 (UTC 2005-03-04)
Language : English

Audio #5
ID : 6
Format : Vorbis
Format settings, Floor : 1
Codec ID : A_VORBIS
Duration : 2h 16mn
Bit rate mode : Constant
Bit rate : 80.0 Kbps
Channel(s) : 2 channels
Sampling rate : 48.0 KHz
Stream size : 78.0 MiB (1%)
Title : Commentary 4
Writing library : libVorbis 1.1.1/1.1.2 (UTC 2005-03-04)
Language : English

Text #1
ID : 7
Format : ASS
Codec ID : S_TEXT/ASS
Codec ID/Info : Advanced Sub Station Alpha
Language : English

Text #2
ID : 8
Format : ASS
Codec ID : S_TEXT/ASS
Codec ID/Info : Advanced Sub Station Alpha
Language : Romanian

Text #3
ID : 9
Format : ASS
Codec ID : S_TEXT/ASS
Codec ID/Info : Advanced Sub Station Alpha
Language : Swedish

Text #4
ID : 10
Format : ASS
Codec ID : S_TEXT/ASS
Codec ID/Info : Advanced Sub Station Alpha
Language : Finnish

Text #5
ID : 11
Format : ASS
Codec ID : S_TEXT/ASS
Codec ID/Info : Advanced Sub Station Alpha
Language : Norwegian

Text #6
ID : 12
Format : ASS
Codec ID : S_TEXT/ASS
Codec ID/Info : Advanced Sub Station Alpha
Language : Danish

Text #7
ID : 13
Format : ASS
Codec ID : S_TEXT/ASS
Codec ID/Info : Advanced Sub Station Alpha
Language : Dutch

Text #8
ID : 14
Format : ASS
Codec ID : S_TEXT/ASS
Codec ID/Info : Advanced Sub Station Alpha
Language : German

Text #9
ID : 15
Format : ASS
Codec ID : S_TEXT/ASS
Codec ID/Info : Advanced Sub Station Alpha
Language : French

Text #10
ID : 16
Format : ASS
Codec ID : S_TEXT/ASS
Codec ID/Info : Advanced Sub Station Alpha
Language : Polish

Text #11
ID : 17
Format : ASS
Codec ID : S_TEXT/ASS
Codec ID/Info : Advanced Sub Station Alpha
Language : Czech

Text #12
ID : 18
Format : ASS
Codec ID : S_TEXT/ASS
Codec ID/Info : Advanced Sub Station Alpha
Language : Hungarian

Text #13
ID : 19
Format : ASS
Codec ID : S_TEXT/ASS
Codec ID/Info : Advanced Sub Station Alpha
Language : Slovenian

Text #14
ID : 20
Format : ASS
Codec ID : S_TEXT/ASS
Codec ID/Info : Advanced Sub Station Alpha
Language : Hebrew
dipzone
 
Posts: 5
Joined: Thu Jun 04, 2009 1:34 pm

Re: getting scrambled audio

Postby meskibob » Tue Jun 30, 2009 6:42 pm

I'm assuming you're trying to play the DTS audio (needs a compatible receiver), in which case you need to make sure that the PS3 playback volume is at +0 and that the Audio Options is set to L+R. Both can be accessed through the Triangle playback control panel.
I provide NO application support via PM or email, so please post your question to the forum per the Forum Rules.
meskibob
Moderator
 
Posts: 4760
Joined: Mon Jan 19, 2009 4:11 pm

Re: getting scrambled audio

Postby dipzone » Tue Jun 30, 2009 8:14 pm

thanks its working now.earlier the volume wasnt 0.
dipzone
 
Posts: 5
Joined: Thu Jun 04, 2009 1:34 pm


Return to General Help and Support

Who is online

Users browsing this forum: Google [Bot] and 13 guests