2 Channel Audio Muffled

For help and support with PS3 Media Server in general
Forum rules
Please make sure you follow the Problem Reporting Guidelines before posting if you want a reply.

2 Channel Audio Muffled

Postby awayfromjay » Sat Jun 27, 2009 11:27 pm

Hi, I have searched for an answer but am finally giving up and asking for help.

I have a PS3 hooked up via HDMI to my Panasonic 800U TV. I performed the automatic audio setup on the PS3 and the 2 channel support was selected.

Using mkv2vob, I have taken a 1080p mkv with 5.1 channel audio and converted it. The file plays fine, but the audio is muffled, and when I hit select it still says 5.1 audio at the top of the screen.

I have tried changing the number of audio channels in PS3 Media Server to 2 channels stereo but that doesn't seem to do anything.

Below is the MediaInfo for the mkv:

Code: Select all
ID                               : 2
Format                           : AC-3
Format/Info                      : Audio Coding 3
Codec ID                         : A_AC3
Duration                         : 1h 56mn
Bit rate mode                    : Constant
Bit rate                         : 640 Kbps
Channel(s)                       : 6 channels
Channel positions                : Front: L C R, Surround: L R, LFE
Sampling rate                    : 48.0 KHz
Stream size                      : 534 MiB (7%)
Language                         : English


Below is the MediaInfo for the converted file (mpg):

Code: Select all
ID                               : 4352 (0x1100)
Menu ID                          : 1 (0x1)
Format                           : AC-3
Format/Info                      : Audio Coding 3
Duration                         : 1h 56mn
Bit rate mode                    : Constant
Bit rate                         : 640 Kbps
Channel(s)                       : 6 channels
Channel positions                : Front: L C R, Surround: L R, LFE
Sampling rate                    : 48.0 KHz
Stream size                      : 534 MiB (2%)


Any help would be greatly appreciated.
awayfromjay
 

Re: 2 Channel Audio Muffled

Postby awayfromjay » Mon Jun 29, 2009 11:50 pm

Can anyone offer any suggestions? Please. Thanks.
awayfromjay
 


Return to General Help and Support

Who is online

Users browsing this forum: Google [Bot] and 10 guests