Datatype not supported for AVI On2 VP6.2

For help and support with PS3 Media Server in general
Forum rules
Please make sure you follow the Problem Reporting Guidelines before posting if you want a reply.

Datatype not supported for AVI On2 VP6.2

Postby Jaxel » Wed Jun 24, 2009 4:19 am

I have a whole bunch of videos that wont play through PS3 Media Server, I get the basic datatype not supported error on my PS3.

Here is the mediainfo on the video:
Code: Select all
Format                           : AVI
Format/Info                      : Audio Video Interleave
File size                        : 1.41 GiB
Duration                         : 52mn 14s
Overall bit rate                 : 3 853 Kbps
Writing application              : VirtualDubMod 1.5.10.1 (build 2439/release)
Writing library                  : VirtualDubMod build 2439/release

Video
Format                           : VP6.2
Codec ID                         : VP62
Codec ID/Hint                    : On2
Duration                         : 52mn 14s
Bit rate                         : 3 459 Kbps
Width                            : 1 280 pixels
Height                           : 720 pixels
Display aspect ratio             : 16/9
Frame rate                       : 23.976 fps
Resolution                       : 12 bits
Bits/(Pixel*Frame)               : 0.157
Stream size                      : 1.26 GiB (90%)

Audio
ID                               : 1
Format                           : AC-3
Format/Info                      : Audio Coding 3
Format profile                   : Dolby Digital
Codec ID                         : 2000
Duration                         : 52mn 14s
Bit rate mode                    : Constant
Bit rate                         : 384 Kbps
Channel(s)                       : 2 channels
Channel positions                : L R
Sampling rate                    : 48.0 KHz
Stream size                      : 143 MiB (10%)
Alignment                        : Split accross interleaves
Interleave, duration             : 42 ms (1.00 video frame)
Interleave, preload duration     : 500 ms


Is there a way I can fix this problem?
Jaxel
 
Posts: 2
Joined: Wed Jun 24, 2009 4:14 am

Re: Datatype not supported for AVI On2 VP6.2

Postby shagrath » Wed Jun 24, 2009 7:31 pm

yes, go into the #transcode folder, and launch the video from there
shagrath
Project Lead
 
Posts: 2668
Joined: Wed Jan 14, 2009 1:39 pm

Re: Datatype not supported for AVI On2 VP6.2

Postby Jaxel » Thu Jun 25, 2009 5:43 am

I've tried that... but the #transcode folder just shows the video as it's own folder... and clicking on it does nothing.
Jaxel
 
Posts: 2
Joined: Wed Jun 24, 2009 4:14 am

Re: Datatype not supported for AVI On2 VP6.2

Postby ExSport » Thu Jun 25, 2009 6:44 am

You reached max folder depth 8 on PS3 ;)
ExSport
 
Posts: 2168
Joined: Mon Jan 19, 2009 5:40 pm


Return to General Help and Support

Who is online

Users browsing this forum: Bing [Bot], Yahoo [Bot] and 13 guests