DIVX Video but no Audio :( Media info included.

For help and support with PS3 Media Server in general
Forum rules
Please make sure you follow the Problem Reporting Guidelines before posting if you want a reply.

DIVX Video but no Audio :( Media info included.

Postby StaticlyCharged » Mon Jun 22, 2009 6:48 pm

Yo, I feel worthless posting this, but I've toyed with PS3 Media server for an hour with no real luck. I'm getting a perfect video stream, but absolutely no audio. I've tried re-prioritizing the encoders, checking a few options here and there, but to no avail. It's safe to assume I don't know what i'm doing. =\

Any help would be greatly appreciated.

Code: Select all
General
Complete name                    : E:\Data\TV\Star Trek\Deep Space Nine\Star.Trek.DS9.S01.DVDRip\Star.Trek.DS9.S01E01.E02.Emissary.DVDRip.DivX-SFM\Star.Trek.DS9.S01E01.E02.DVDRip.DivX-SFM.avi
Format                           : AVI
Format/Info                      : Audio Video Interleave
File size                        : 700 MiB
Duration                         : 1h 30mn
Overall bit rate                 : 1 077 Kbps
Writing application              : Nandub v1.0rc2
Writing library                  : Nandub build 1852/release

Video
ID                               : 0
Format                           : MPEG-4 Visual
Codec ID                         : DIV3
Codec ID/Hint                    : DivX 3 Low
Duration                         : 1h 30mn
Bit rate                         : 905 Kbps
Width                            : 512 pixels
Height                           : 384 pixels
Display aspect ratio             : 4/3
Frame rate                       : 23.976 fps
Resolution                       : 24 bits
Bits/(Pixel*Frame)               : 0.192
Stream size                      : 588 MiB (84%)

Audio
ID                               : 1
Format                           : MPEG Audio
Format version                   : Version 1
Format profile                   : Layer 3
Codec ID                         : 55
Codec ID/Hint                    : MP3
Duration                         : 1h 30mn
Bit rate mode                    : Variable
Bit rate                         : 159 Kbps
Nominal bit rate                 : 160 Kbps
Channel(s)                       : 2 channels
Sampling rate                    : 48.0 KHz
Resolution                       : 16 bits
Video delay                      : 816ms
Stream size                      : 103 MiB (15%)
Alignment                        : Split accross interleaves
Interleave, duration             : 24 ms (0.58 video frame)
Interleave, preload duration     : 1158 ms
Writing library                  : LAME3.92
Encoding settings                : -m j -V 4 -q 2 -lowpass 18 --abr 160
StaticlyCharged
 
Posts: 5
Joined: Mon Jun 22, 2009 5:30 pm

Re: DIVX Video but no Audio :( Media info included.

Postby shagrath » Mon Jun 22, 2009 8:09 pm

did you launched this video from the #transcoded# folder ?
shagrath
Project Lead
 
Posts: 2664
Joined: Wed Jan 14, 2009 1:39 pm

Re: DIVX Video but no Audio :( Media info included.

Postby StaticlyCharged » Tue Jun 23, 2009 1:49 am

No, this is when trying to regularly stream the file.
StaticlyCharged
 
Posts: 5
Joined: Mon Jun 22, 2009 5:30 pm

Re: DIVX Video but no Audio :( Media info included.

Postby StaticlyCharged » Tue Jun 23, 2009 7:00 am

Also, I should note that I haven't attempted to to try the # Transcode # option, because i'm trying to play the files from within the archive. (a freaking ingenious idea by the way -- love the feature)
StaticlyCharged
 
Posts: 5
Joined: Mon Jun 22, 2009 5:30 pm

Re: DIVX Video but no Audio :( Media info included.

Postby shagrath » Tue Jun 23, 2009 8:19 am

well, try from the #transcoded folder... ps3 is not perfect as of today, some avi files don't play natively really well
shagrath
Project Lead
 
Posts: 2664
Joined: Wed Jan 14, 2009 1:39 pm

Re: DIVX Video but no Audio :( Media info included.

Postby StaticlyCharged » Tue Jun 23, 2009 10:15 pm

*nod* will try. Thanks :).

And thanks for such a kickass Media Server :)
StaticlyCharged
 
Posts: 5
Joined: Mon Jun 22, 2009 5:30 pm


Return to General Help and Support

Who is online

Users browsing this forum: geb724 and 19 guests