similar mkv files 1 works other doesnt

For help and support with PS3 Media Server in general
Forum rules
Please make sure you follow the Problem Reporting Guidelines before posting if you want a reply.

similar mkv files 1 works other doesnt

Postby nawo6969 » Mon May 04, 2009 2:40 pm

First off i would like to say thanks for this awesome program!

Using Version 1.10.630

I have 2 mkv files that look like they have been encoded the same but one works with tsmuxer while the other get data corrupt. (its works fine if i run it through mkv2vob.)

Here are the file details

1st file - This one works

General
Complete name : H:\Newsbin_Downloads\King.of.the.Hill.S13E16.720p.HDTV.X264-DIMENSION.mkv
Format : Matroska
File size : 559 MiB
Duration : 21mn 18s
Overall bit rate : 3 667 Kbps
Encoded date : UTC 2009-05-03 15:27:06
Writing application : mkvmerge v2.0.2 ('You're My Flame') built on Feb 21 2007 23:40:55
Writing library : libebml v0.7.7 + libmatroska v0.8.1

Video
ID : 2
Format : AVC
Format/Info : Advanced Video Codec
Format profile : High@L4.1
Format settings, CABAC : Yes
Format settings, ReFrames : 5 frames
Muxing mode : Container profile=Unknown@4.1
Codec ID : V_MPEG4/ISO/AVC
Duration : 21mn 17s
Bit rate : 3 146 Kbps
Nominal bit rate : 3 216 Kbps
Width : 1 280 pixels
Height : 720 pixels
Display aspect ratio : 16/9
Frame rate : 23.976 fps
Resolution : 24 bits
Colorimetry : 4:2:0
Scan type : Progressive
Bits/(Pixel*Frame) : 0.142
Stream size : 479 MiB (86%)
Writing library : x264 core 66 r1114 a933a3e
Encoding settings : cabac=1 / ref=5 / deblock=1:-1:-1 / analyse=0x3:0x113 / me=umh / subme=7 / psy_rd=1.0:0.0 / mixed_ref=0 / me_range=16 / chroma_me=1 / trellis=1 / 8x8dct=1 / cqm=0 / deadzone=21,11 / chroma_qp_offset=-2 / threads=6 / nr=0 / decimate=1 / mbaff=0 / bframes=3 / b_pyramid=1 / b_adapt=0 / b_bias=0 / direct=3 / wpredb=1 / keyint=250 / keyint_min=25 / scenecut=40(pre) / rc=2pass / bitrate=3216 / ratetol=1.0 / qcomp=0.60 / qpmin=10 / qpmax=51 / qpstep=4 / cplxblur=20.0 / qblur=0.5 / ip_ratio=1.40 / pb_ratio=1.30 / aq=1:1.20
Language : English

Audio
ID : 1
Format : AC-3
Format/Info : Audio Coding 3
Codec ID : A_AC3
Duration : 21mn 18s
Bit rate mode : Constant
Bit rate : 448 Kbps
Channel(s) : 6 channels
Channel positions : Front: L C R, Surround: L R, LFE
Sampling rate : 48.0 KHz
Stream size : 68.3 MiB (12%)

2nd File - This get data corrupt
General
Complete name : H:\Newsbin_Downloads\The.Simpsons.S20E19.720p.HDTV.X264-DIMENSION.mkv
Format : Matroska
File size : 559 MiB
Duration : 21mn 57s
Overall bit rate : 3 559 Kbps
Encoded date : UTC 2009-05-03 14:36:21
Writing application : mkvmerge v2.0.2 ('You're My Flame') built on Feb 21 2007 23:40:55
Writing library : libebml v0.7.7 + libmatroska v0.8.1

Video
ID : 2
Format : AVC
Format/Info : Advanced Video Codec
Format profile : High@L4.1
Format settings, CABAC : Yes
Format settings, ReFrames : 5 frames
Muxing mode : Container profile=Unknown@4.1
Codec ID : V_MPEG4/ISO/AVC
Duration : 21mn 55s
Bit rate : 3 040 Kbps
Nominal bit rate : 3 108 Kbps
Width : 1 280 pixels
Height : 720 pixels
Display aspect ratio : 16/9
Frame rate : 23.976 fps
Resolution : 24 bits
Colorimetry : 4:2:0
Scan type : Progressive
Bits/(Pixel*Frame) : 0.138
Stream size : 477 MiB (85%)
Writing library : x264 core 66 r1114 a933a3e
Encoding settings : cabac=1 / ref=5 / deblock=1:-1:-1 / analyse=0x3:0x113 / me=umh / subme=7 / psy_rd=1.0:0.0 / mixed_ref=0 / me_range=16 / chroma_me=1 / trellis=1 / 8x8dct=1 / cqm=0 / deadzone=21,11 / chroma_qp_offset=-2 / threads=6 / nr=0 / decimate=1 / mbaff=0 / bframes=3 / b_pyramid=1 / b_adapt=0 / b_bias=0 / direct=3 / wpredb=1 / keyint=250 / keyint_min=25 / scenecut=40(pre) / rc=2pass / bitrate=3108 / ratetol=1.0 / qcomp=0.60 / qpmin=10 / qpmax=51 / qpstep=4 / cplxblur=20.0 / qblur=0.5 / ip_ratio=1.40 / pb_ratio=1.30 / aq=1:1.20
Language : English

Audio
ID : 1
Format : AC-3
Format/Info : Audio Coding 3
Codec ID : A_AC3
Duration : 21mn 57s
Bit rate mode : Constant
Bit rate : 448 Kbps
Channel(s) : 6 channels
Channel positions : Front: L C R, Surround: L R, LFE
Sampling rate : 48.0 KHz
Stream size : 70.3 MiB (13%)

Out of the 5 episodes i got today 2 didn't work and i can work out why.
Attachments
debug.zip
debug log after opening each file
(12.77 KiB) Downloaded 20 times
nawo6969
 
Posts: 20
Joined: Sat Jan 24, 2009 10:15 pm

Return to General Help and Support

Who is online

Users browsing this forum: lemmy and 12 guests