I can stream to my TV with my iPad but not w/ PMS & my PS3?

For help and support with PS3 Media Server in general
Forum rules
Please make sure you follow the Problem Reporting Guidelines before posting if you want a reply.

I can stream to my TV with my iPad but not w/ PMS & my PS3?

Postby tgod » Thu Nov 14, 2013 12:58 am

I've been trying to get PMS to work for age now. I can't get videos to play, they just constantly skip, stutter, etc. I had a pretty decent connection months ago when I first tried this out, I had a 50/25mbps. Even with that connection I could not stream 720p or 1080 files (MKV, AVI, etc.) from my PC to my PS3 without every video eventually skipping/stuttering. Every video would start out the same, for the first minute or say I'd say it played perfect then it all goes down hill from there. The only way I could get the stutter/skipping to stop was to pause the video, wait a for seconds and play it again. I couldnt even stream SD videos, so I gave up.

I just recently got an upgrade connection from FiOS, 75/35mbps and they also gave me the latest router that they are promoting everywhere. I also recently purchased and iPad Air and an Apple TV. I decided to see how the iPad would stream my movies (2-20GB 1080p videos). I download an iOS app called AirVideo HD (converts video on the fly while streaming) and then I turned on my Apple TV and used it's Airplay/Mirrioing feature. I was able to stream every movie flawless from my PC > iPad > Apple TV all wireless (my PC is hardwired). I maybe got one hiccup or two.

So to my question...I can't figure out why I PMS will not work but I can use the iPad with no issues? How can I fix PSM to work b/c I'd love to my $100 back, I don't want this Apple TV but it works for my streaming purposes so far, the best I can find. I attached some screenshot of PMS while trying to play 2 movies tonight. I figured I also post the MediaInfo from one of the movies, as you can tell it's only around 4GB:

1.png
Movie 1
1.png (118.94 KiB) Viewed 1423 times
2.png
Movie 2
2.png (108.86 KiB) Viewed 1423 times


Code: Select all
General
Unique ID                                : 225600620539269815784792252595908023454 (0xA9B9195BCAE05CE5BA5E1A6BDE1A949E)
Complete name                            : 1080p.WEB-DL.H264.mkv
Format                                   : Matroska
Format version                           : Version 2
File size                                : 4.16 GiB
Duration                                 : 1h 55mn
Overall bit rate                         : 5 142 Kbps
Encoded date                             : UTC 2013-11-12 09:05:46
Writing application                      : mkvmerge v5.8.0 ('No Sleep / Pillow') built on Sep  2 2012 15:37:04
Writing library                          : libebml v1.2.3 + libmatroska v1.3.0

Video
ID                                       : 1
Format                                   : AVC
Format/Info                              : Advanced Video Codec
Format profile                           : High@L4.0
Format settings, CABAC                   : Yes
Format settings, ReFrames                : 5 frames
Codec ID                                 : V_MPEG4/ISO/AVC
Duration                                 : 1h 55mn
Bit rate                                 : 4 656 Kbps
Width                                    : 1 912 pixels
Height                                   : 792 pixels
Display aspect ratio                     : 2.40:1
Frame rate mode                          : Constant
Frame rate                               : 23.976 fps
Color space                              : YUV
Chroma subsampling                       : 4:2:0
Bit depth                                : 8 bits
Scan type                                : Progressive
Bits/(Pixel*Frame)                       : 0.128
Stream size                              : 3.77 GiB (91%)
Language                                 : English
Default                                  : Yes
Forced                                   : No
Color primaries                          : BT.709
Transfer characteristics                 : BT.709
Matrix coefficients                      : BT.709

Audio
ID                                       : 2
Format                                   : AC-3
Format/Info                              : Audio Coding 3
Mode extension                           : CM (complete main)
Format settings, Endianness              : Big
Codec ID                                 : A_AC3
Duration                                 : 1h 55mn
Bit rate mode                            : Constant
Bit rate                                 : 384 Kbps
Channel(s)                               : 6 channels
Channel positions                        : Front: L C R, Side: L R, LFE
Sampling rate                            : 48.0 KHz
Bit depth                                : 16 bits
Compression mode                         : Lossy
Stream size                              : 318 MiB (7%)
Language                                 : English
Default                                  : Yes
Forced                                   : No

Text
ID                                       : 3
Format                                   : UTF-8
Codec ID                                 : S_TEXT/UTF8
Codec ID/Info                            : UTF-8 Plain Text
Language                                 : English
Default                                  : No
Forced                                   : No

Menu
00:00:00.000                             : en:Chapter 1
00:08:16.000                             : en:Chapter 2
00:14:48.000                             : en:Chapter 3
00:21:16.000                             : en:Chapter 4
00:28:18.000                             : en:Chapter 5
00:39:38.000                             : en:Chapter 6
00:47:09.000                             : en:Chapter 7
00:54:18.000                             : en:Chapter 8
01:00:06.000                             : en:Chapter 9
01:07:32.000                             : en:Chapter 10
01:11:34.000                             : en:Chapter 11
01:18:38.000                             : en:Chapter 12
01:23:01.000                             : en:Chapter 13
01:27:46.000                             : en:Chapter 14
01:35:38.000                             : en:Chapter 15
01:41:29.000                             : en:Chapter 16
01:45:05.000                             : en:Chapter 17
01:46:45.000                             : en:Chapter 18
tgod
 
Posts: 1
Joined: Thu Nov 14, 2013 12:28 am

Return to General Help and Support

Who is online

Users browsing this forum: Bing [Bot] and 20 guests