No sound mp4 with AAC

For help and support with PS3 Media Server in general
Forum rules
Please make sure you follow the Problem Reporting Guidelines before posting if you want a reply.

No sound mp4 with AAC

Postby Bengt5DB » Wed Oct 23, 2013 8:25 am

Hi, I need help with to get combination of PS3mediaserver and PS3 to play sound from MP4 files with the audioformat in AAC.
i don't get any sound at all for any of my mp4 files
I've search for a solution but haven't found and any or I may have have missed some obvious solution! So I need you help
the basic information I can provide is:
Running PMS ver 1.90.1
medioinfo provide me with fileinfo:

Format : MPEG-4
Format profile : Base Media
Codec ID : isom
File size : 540 MiB
Duration : 44mn 51s
Overall bit rate mode : Constant
Overall bit rate : 1 683 Kbps
Writing application : Lavf54.61.104

Video
ID : 1
Format : AVC
Format/Info : Advanced Video Codec
Format profile : Main@L3.1
Format settings, CABAC : Yes
Format settings, ReFrames : 4 frames
Format settings, GOP : M=4, N=50
Codec ID : avc1
Codec ID/Info : Advanced Video Coding
Duration : 44mn 51s
Bit rate mode : Constant
Bit rate : 1 584 Kbps
Width : 1 024 pixels
Height : 576 pixels
Display aspect ratio : 16:9
Frame rate mode : Constant
Frame rate : 25.000 fps
Color space : YUV
Chroma subsampling : 4:2:0
Bit depth : 8 bits
Scan type : Progressive
Bits/(Pixel*Frame) : 0.107
Stream size : 508 MiB (94%)

Audio
ID : 2
Format : AAC
Format/Info : Advanced Audio Codec
Format profile : HE-AAC / LC
Codec ID : 40
Duration : 44mn 51s
Bit rate mode : Constant
Bit rate : 96.0 Kbps
Channel(s) : 2 channels
Channel positions : Front: L R
Sampling rate : 48.0 KHz / 24.0 KHz
Compression mode : Lossy
Stream size : 30.3 MiB (6%)
Bengt5DB
 
Posts: 1
Joined: Wed Oct 23, 2013 8:03 am

Return to General Help and Support

Who is online

Users browsing this forum: Yahoo [Bot] and 21 guests