Can't seek or resume MKVs with DTS ES 6.1. Error 1073741819

For help and support with PS3 Media Server in general
Forum rules
Please make sure you follow the Problem Reporting Guidelines before posting if you want a reply.

Can't seek or resume MKVs with DTS ES 6.1. Error 1073741819

Postby ziatonic » Wed Aug 28, 2013 8:04 am

Using TSMUXER to my fat 60GB PS3, I cannot use the "Go To" feature on MKVs with DTS ES 6.1. The video stays paused and no buttons work other than Circle, which exits back to the XMB. I also can't resume said movies as they simply start playing back at 0:00. I have tried 1.90.1 and am now using 1.80 with the same problem. I have used mkvmerge to remove the DTS track and the video plays and seeks fine but has no sound (obviously). Debug shows "encoder.exe has a return code of -1073741819!" after "Requesting time seek: 212.0 seconds" on the original MKV. Also, the file doens't play at all if I have "tsmuxer_mux_all_audiotracks = true" in the PMS.conf.

Debug
http://pastebin.com/p78b4Kgj


PMS.conf
Code: Select all
thumbnails = true
image_thumbnails = true
alternativeffmpegpath = C:\\Program Files (x86)\\PS3 Media Server\\win32\\dvrms\\ffmpeg_MPGMUX.exe
mencoder_ass = true
mencoder_fontconfig = true
mencoder_ass_defaultstyle = true
uuid = 0ead3711-f0de-4dcf-9651-4ccc343b0a41
thumbnail_seek_pos = 30
engines = tsmuxer,mencoder,ffmpegvideo,vlctranscoder,ffmpegaudio,mplayeraudio,tsmuxeraudio,ffmpegwebvideo,vlcvideo,mencoderwebvideo,mplayervideodump,mplayerwebaudio,vlcaudio,ffmpegdvrmsremux,rawthumbs
embed_dts_in_pcm = true
mencoder_usepcm = true
tsmuxer_mux_all_audiotracks = false




MediaInfo of one of the files (with DTS ES 6.1) that won't seek.

Code: Select all
General
Unique ID                                : 242671289490959349671381867377229359880 (0xB690CA519574DCC0944F2689E94CEB08)
Complete name                            : G:\Movies\Star.Wars.Episode.VI.Return.Of.The.Jedi.1983.1080p.BluRay.DTS.x264.D-Z0N3\Star.Wars.Episode.6.Return.Of.The.Jedi.1983.1080p.BluRay.DTS.x264.D-Z0N3.mkv
Format                                   : Matroska
Format version                           : Version 2
File size                                : 17.2 GiB
Duration                                 : 2h 14mn
Overall bit rate                         : 18.3 Mbps
Encoded date                             : UTC 2011-09-10 00:43:48
Writing application                      : mkvmerge v4.9.1 ('Ich will') built on Jul 11 2011 23:53:15
Writing library                          : libebml v1.2.1 + libmatroska v1.1.1

Video
ID                                       : 1
Format                                   : AVC
Format/Info                              : Advanced Video Codec
Format profile                           : High@L4.1
Format settings, CABAC                   : Yes
Format settings, ReFrames                : 5 frames
Codec ID                                 : V_MPEG4/ISO/AVC
Duration                                 : 2h 14mn
Bit rate                                 : 16.7 Mbps
Width                                    : 1 920 pixels
Height                                   : 820 pixels
Display aspect ratio                     : 2.35:1
Frame rate mode                          : Constant
Frame rate                               : 23.976 fps
Color space                              : YUV
Chroma subsampling                       : 4:2:0
Bit depth                                : 8 bits
Scan type                                : Progressive
Bits/(Pixel*Frame)                       : 0.441
Stream size                              : 15.3 GiB (89%)
Title                                    : x264
Writing library                          : x264 core 116 r2074 2641b9e
Encoding settings                        : cabac=1 / ref=5 / deblock=1:-3:-3 / analyse=0x3:0x113 / me=esa / subme=11 / psy=1 / psy_rd=1.05:0.00 / mixed_ref=1 / me_range=48 / chroma_me=1 / trellis=2 / 8x8dct=1 / cqm=0 / deadzone=21,11 / fast_pskip=0 / chroma_qp_offset=-2 / threads=6 / sliced_threads=0 / nr=0 / decimate=0 / interlaced=0 / bluray_compat=0 / constrained_intra=0 / bframes=7 / b_pyramid=2 / b_adapt=2 / b_bias=0 / direct=3 / weightb=1 / open_gop=0 / weightp=2 / keyint=250 / keyint_min=23 / scenecut=40 / intra_refresh=0 / rc_lookahead=250 / rc=2pass / mbtree=1 / bitrate=16651 / ratetol=1.0 / qcomp=0.70 / qpmin=0 / qpmax=69 / qpstep=4 / cplxblur=20.0 / qblur=0.5 / vbv_maxrate=38000 / vbv_bufsize=30000 / nal_hrd=none / ip_ratio=1.40 / aq=1:0.80
Language                                 : English
Default                                  : Yes
Forced                                   : No

Audio #1
ID                                       : 2
Format                                   : DTS
Format/Info                              : Digital Theater Systems
Format profile                           : ES
Mode                                     : 16
Format settings, Endianness              : Big
Codec ID                                 : A_DTS
Duration                                 : 2h 14mn
Bit rate mode                            : Constant
Bit rate                                 : 1 509 Kbps
Channel(s)                               : 7 channels / 6 channels
Channel positions                        : Front: L C R, Side: L R, Back: C, LFE / Front: L C R, Side: L R, LFE
Sampling rate                            : 48.0 KHz
Bit depth                                : 24 bits
Compression mode                         : Lossy
Stream size                              : 1.42 GiB (8%)
Title                                    : DTS 6.1
Language                                 : English
Default                                  : Yes
Forced                                   : No

Audio #2
ID                                       : 3
Format                                   : MPEG Audio
Format version                           : Version 2
Format profile                           : Layer 3
Mode                                     : Joint stereo
Mode extension                           : MS Stereo
Codec ID                                 : A_MPEG/L3
Codec ID/Hint                            : MP3
Duration                                 : 2h 14mn
Bit rate mode                            : Constant
Bit rate                                 : 64.0 Kbps
Channel(s)                               : 2 channels
Sampling rate                            : 24.0 KHz
Compression mode                         : Lossy
Stream size                              : 61.7 MiB (0%)
Title                                    : George Lucas Commentary
Writing library                          : LAME3.98r
Encoding settings                        : -m j -V 4 -q 2 -lowpass 11 -b 64
Language                                 : English
Default                                  : No
Forced                                   : No

Audio #3
ID                                       : 4
Format                                   : MPEG Audio
Format version                           : Version 2
Format profile                           : Layer 3
Mode                                     : Joint stereo
Mode extension                           : MS Stereo
Codec ID                                 : A_MPEG/L3
Codec ID/Hint                            : MP3
Duration                                 : 2h 14mn
Bit rate mode                            : Constant
Bit rate                                 : 64.0 Kbps
Channel(s)                               : 2 channels
Sampling rate                            : 24.0 KHz
Compression mode                         : Lossy
Stream size                              : 61.7 MiB (0%)
Title                                    : Director's Commentary
Writing library                          : LAME3.98r
Encoding settings                        : -m j -V 4 -q 2 -lowpass 11 -b 64
Language                                 : English
Default                                  : No
Forced                                   : No

Text #1
ID                                       : 5
Format                                   : UTF-8
Codec ID                                 : S_TEXT/UTF8
Codec ID/Info                            : UTF-8 Plain Text
Title                                    : Non English Parts
Language                                 : English
Default                                  : Yes
Forced                                   : No

Text #2
ID                                       : 6
Format                                   : UTF-8
Codec ID                                 : S_TEXT/UTF8
Codec ID/Info                            : UTF-8 Plain Text
Title                                    : English
Language                                 : English
Default                                  : No
Forced                                   : No

Menu
00:00:00.000                             : en:Opening Logos
00:00:21.188                             : en:Return of the Jedi
00:01:55.115                             : en:Vader's Unexpected Visit
00:04:58.465                             : en:Arrival at Jabba's Palace
00:08:10.907                             : en:A Message and a Gift
00:12:21.908                             : en:The Max Rebo Band
00:14:22.028                             : en:The Price for Chewbacca
00:17:36.013                             : en:Free From the Carbonite
00:22:10.037                             : en:Enter the Jedi
00:25:08.340                             : en:"Oh No! the Rancor"
00:29:37.359                             : en:On the Sail Barge
00:31:29.012                             : en:The Sarlacc Pit
00:37:44.471                             : en:The Emperor Arrives
00:39:32.245                             : en:Yoda's Twilight
00:45:17.423                             : en:A Certain Point of View
00:48:23.400                             : en:Rebel Briefing
00:51:36.010                             : en:Lending the Falcon
00:53:32.668                             : en:The Emperor's Instructions
00:54:25.095                             : en:Flying Casual
00:56:55.245                             : en:Arrival on Endor
00:58:43.812                             : en:Speeder Bike Chase
01:02:41.716                             : en:Leia Meets Wicket
01:06:19.267                             : en:Vader's Report
01:07:47.480                             : en:An Ewok Trap
01:12:01.108                             : en:The Golden God
01:15:52.673                             : en:Campfire Stories
01:18:14.815                             : en:Brother and Sister
01:22:30.404                             : en:Luke Surrenders
01:26:06.870                             : en:Rebel Recon
01:26:52.082                             : en:The Alliance Fleet
01:27:50.891                             : en:Back Door
01:30:04.524                             : en:Luke and the Emperor
01:33:19.135                             : en:"It's A Trap!"
01:36:41.421                             : en:Ewok Attack
01:40:25.186                             : en:Fully Operational
01:42:23.179                             : en:The Battle Rages
01:44:27.803                             : en:The Dark Side Beckons
01:45:26.946                             : en:The Ewoks Turn the Tide
01:48:42.433                             : en:Father vs Son
01:50:40.634                             : en:Taking the Bunker
01:51:37.107                             : en:A Jedi's Fury
01:54:37.120                             : en:The Shield Is Down
01:55:07.859                             : en:Force Lightning
01:55:57.492                             : en:Vader's Redemption
01:57:40.178                             : en:Into the Death Star
01:59:34.167                             : en:Anakin Unmasked
02:01:58.853                             : en:Death Star Destroyed
02:04:50.566                             : en:Funeral Pyre
02:05:27.437                             : en:Celebration
02:07:56.043                             : en:End Credits




MediaInfo of a file that has DTS removed and seeks normally (using Go To)
Code: Select all
General
Unique ID                                : 221716763796235569739245415119026315892 (0xA6CD186FDB05169697136EA1125EE274)
Complete name                            : E:\Jedi3.mkv
Format                                   : Matroska
Format version                           : Version 2
File size                                : 15.7 GiB
Duration                                 : 2h 14mn
Overall bit rate                         : 16.7 Mbps
Encoded date                             : UTC 2013-08-28 07:26:52
Writing application                      : mkvmerge v5.8.0 ('No Sleep / Pillow') built on Sep  2 2012 15:37:04
Writing library                          : libebml v1.2.3 + libmatroska v1.3.0

Video
ID                                       : 1
Format                                   : AVC
Format/Info                              : Advanced Video Codec
Format profile                           : High@L4.1
Format settings, CABAC                   : Yes
Format settings, ReFrames                : 5 frames
Codec ID                                 : V_MPEG4/ISO/AVC
Duration                                 : 2h 14mn
Bit rate                                 : 16.7 Mbps
Width                                    : 1 920 pixels
Height                                   : 820 pixels
Display aspect ratio                     : 2.35:1
Frame rate mode                          : Constant
Frame rate                               : 23.976 fps
Color space                              : YUV
Chroma subsampling                       : 4:2:0
Bit depth                                : 8 bits
Scan type                                : Progressive
Bits/(Pixel*Frame)                       : 0.441
Stream size                              : 15.4 GiB (98%)
Title                                    : x264
Writing library                          : x264 core 116 r2074 2641b9e
Encoding settings                        : cabac=1 / ref=5 / deblock=1:-3:-3 / analyse=0x3:0x113 / me=esa / subme=11 / psy=1 / psy_rd=1.05:0.00 / mixed_ref=1 / me_range=48 / chroma_me=1 / trellis=2 / 8x8dct=1 / cqm=0 / deadzone=21,11 / fast_pskip=0 / chroma_qp_offset=-2 / threads=6 / sliced_threads=0 / nr=0 / decimate=0 / interlaced=0 / bluray_compat=0 / constrained_intra=0 / bframes=7 / b_pyramid=2 / b_adapt=2 / b_bias=0 / direct=3 / weightb=1 / open_gop=0 / weightp=2 / keyint=250 / keyint_min=23 / scenecut=40 / intra_refresh=0 / rc_lookahead=250 / rc=2pass / mbtree=1 / bitrate=16651 / ratetol=1.0 / qcomp=0.70 / qpmin=0 / qpmax=69 / qpstep=4 / cplxblur=20.0 / qblur=0.5 / vbv_maxrate=38000 / vbv_bufsize=30000 / nal_hrd=none / ip_ratio=1.40 / aq=1:0.80
Language                                 : English
Default                                  : Yes
Forced                                   : No

Audio
ID                                       : 2
Format                                   : MPEG Audio
Format version                           : Version 2
Format profile                           : Layer 3
Mode                                     : Joint stereo
Mode extension                           : MS Stereo
Codec ID                                 : A_MPEG/L3
Codec ID/Hint                            : MP3
Duration                                 : 2h 14mn
Bit rate mode                            : Constant
Bit rate                                 : 64.0 Kbps
Channel(s)                               : 2 channels
Sampling rate                            : 24.0 KHz
Compression mode                         : Lossy
Stream size                              : 61.7 MiB (0%)
Title                                    : George Lucas Commentary
Writing library                          : LAME3.98r
Encoding settings                        : -m j -V 4 -q 2 -lowpass 11 -b 64
Language                                 : English
Default                                  : Yes
Forced                                   : No

ziatonic
 
Posts: 12
Joined: Wed Nov 21, 2012 10:24 am

Re: Can't seek or resume MKVs with DTS ES 6.1. Error 1073741

Postby ziatonic » Wed Aug 28, 2013 10:12 pm

Anyone else try this? All my Star Wars and Lord of the Rings movies with DTS ES 6.1 can be played, but can't be resumed or seeked using the "Go To" feature. It's pretty annoying when a movie is 3+ hours.
ziatonic
 
Posts: 12
Joined: Wed Nov 21, 2012 10:24 am

Re: Can't seek or resume MKVs with DTS ES 6.1. Error 1073741

Postby robsonsirena » Fri Aug 30, 2013 7:36 pm

Look this link: viewtopic.php?f=2&t=17234
It's a temporary solution.. It works for me..
robsonsirena
 
Posts: 3
Joined: Fri Aug 30, 2013 6:10 pm


Return to General Help and Support

Who is online

Users browsing this forum: Bing [Bot], Google [Bot], Yahoo [Bot] and 13 guests