Problem with Transcoding Folder

For help and support with PS3 Media Server in general
Forum rules
Please make sure you follow the Problem Reporting Guidelines before posting if you want a reply.

Problem with Transcoding Folder

Postby cooltwou » Sun Jul 21, 2013 7:13 pm

What would cause the Transcoding folder to not open up at all
cooltwou
 
Posts: 106
Joined: Tue Dec 13, 2011 3:46 am

Re: Problem with Transcoding Folder

Postby cooltwou » Tue Jul 23, 2013 2:14 pm

here is the media info for the file if that might help you out:
General
Complete name : G:\Movies\My Movies\TV\Ended\Tna\2005\TNA.iMPACT.2005.10.22.PDTV.x264-RUDOS.avi
Format : AVI
Format/Info : Audio Video Interleave
File size : 510 MiB
Duration : 41mn 56s
Overall bit rate : 1 701 Kbps
Writing application : Lavf55.0.100

Video
ID : 0
Format : AVC
Format/Info : Advanced Video Codec
Format profile : High@L3.0
Format settings, CABAC : Yes
Format settings, ReFrames : 4 frames
Codec ID : H264
Duration : 41mn 56s
Bit rate : 1 495 Kbps
Width : 576 pixels
Height : 432 pixels
Display aspect ratio : 4:3
Frame rate mode : Variable
Frame rate : 29.970 fps
Color space : YUV
Chroma subsampling : 4:2:0
Bit depth : 8 bits
Scan type : Progressive
Bits/(Pixel*Frame) : 0.200
Stream size : 449 MiB (88%)
Writing library : x264 core 130 r2274 c832fe9
Encoding settings : cabac=1 / ref=3 / deblock=1:0:0 / analyse=0x3:0x113 / me=hex / subme=7 / psy=1 / psy_rd=1.00:0.00 / mixed_ref=1 / me_range=16 / chroma_me=1 / trellis=1 / 8x8dct=1 / cqm=0 / deadzone=21,11 / fast_pskip=1 / chroma_qp_offset=-2 / threads=6 / lookahead_threads=1 / sliced_threads=0 / nr=0 / decimate=1 / interlaced=0 / bluray_compat=0 / constrained_intra=0 / bframes=3 / b_pyramid=2 / b_adapt=2 / b_bias=0 / direct=1 / weightb=1 / open_gop=0 / weightp=2 / keyint=250 / keyint_min=25 / scenecut=40 / intra_refresh=0 / rc_lookahead=40 / rc=abr / mbtree=1 / bitrate=1495 / ratetol=1.0 / qcomp=0.60 / qpmin=0 / qpmax=69 / qpstep=4 / ip_ratio=1.41 / aq=1:1.00

Audio
ID : 1
Format : MPEG Audio
Format version : Version 1
Format profile : Layer 3
Mode : Joint stereo
Mode extension : MS Stereo
Codec ID : 55
Codec ID/Hint : MP3
Duration : 41mn 56s
Bit rate mode : Constant
Bit rate : 192 Kbps
Channel(s) : 2 channels
Sampling rate : 48.0 KHz
Compression mode : Lossy
Stream size : 57.6 MiB (11%)
Alignment : Aligned on interleaves
Interleave, duration : 24 ms (0.72 video frame)
Interleave, preload duration : 72 ms
Writing library : LAME3.99.5
cooltwou
 
Posts: 106
Joined: Tue Dec 13, 2011 3:46 am

Re: Problem with Transcoding Folder

Postby meskibob » Tue Jul 23, 2013 2:19 pm

Take a look at solution 2 of this FAQ post - viewtopic.php?f=6&t=3507&p=15591#p15591
Note: You've been directed to look at the FAQ several times in the past. Please do so before any additional posts.
I provide NO application support via PM or email, so please post your question to the forum per the Forum Rules.
meskibob
Moderator
 
Posts: 4787
Joined: Mon Jan 19, 2009 4:11 pm

Re: Problem with Transcoding Folder

Postby cooltwou » Tue Jul 23, 2013 10:26 pm

I don't see that any of them are my problem I get no error messages on the PS3 & I checked other transcoding folders they will open & you can play but it just these certain types of media the transcoding folders will not open & the transcoding folder did open up before I upgraded to the PS3 Media Server Version 1.82.0 & I tried to downgraded to the version 1.81.0 & the transcoding folders would not open eithet & it says this in the trace logs for these files
Warn 2013-07-23 22:22:08.527 [New I/O server worker #1-4] Can't create thumbnail for G:\Movies\My Movies\TV\Ended\Tna\2005\TNA.iMPACT.2005.10.22.PDTV.x264-RUDOs.ave: No suitable ImageReader found for G:\Movies\My Movies\TV\Ended\Tna\2005\TNA.iMPACT.2005.10.22.PDTV.x264-RUDOS.avi
cooltwou
 
Posts: 106
Joined: Tue Dec 13, 2011 3:46 am

Re: Problem with Transcoding Folder

Postby chrissiecool » Fri Jul 26, 2013 7:17 pm

i'm assuming you have updated your java recently. 1.82.0 and 1.81.0 just don't play hd files at all since i updated to the latest java build. Go back to 1.72 https://code.google.com/p/ps3mediaserve ... e&can=1&q= and you should be fine. Makes me wonder if the moderators here actually use ps3 media server :P
chrissiecool
 
Posts: 31
Joined: Tue Mar 31, 2009 3:22 pm

Re: Problem with Transcoding Folder

Postby cooltwou » Fri Jul 26, 2013 8:51 pm

I don't want to have to go all the way back to 1.72 version
cooltwou
 
Posts: 106
Joined: Tue Dec 13, 2011 3:46 am


Return to General Help and Support

Who is online

Users browsing this forum: Bing [Bot], Google [Bot] and 8 guests