Videos freeze a minute in.

For help and support with PS3 Media Server in general
Forum rules
Please make sure you follow the Problem Reporting Guidelines before posting if you want a reply.

Videos freeze a minute in.

Postby Bashie » Sat Jun 22, 2013 7:36 pm

When I play a certain video series on my PS3, they freeze at exactly the same spot a minute or two in. The only clue I get is THIS in the debug log

Looks like this file was encoded with (divx4/(old)xvid/opendivx) -> forcing low_delay flag

I would like to transcode it, but whenever I enter the transcode folder, it won't let me select any files. I can see them ,but I can't "click" on them. Help?

Code: Select all
BUG 2013-06-22 13:26:34.857 [Thread-69]     Stream #0:0: Video: mpeg4 (DIVX / 0x58564944), yuv420p, 384x288, 25 fps, 25 tbr, 25 tbn, 30k tbc
DEBUG 2013-06-22 13:26:34.857 [Thread-69]     Stream #0:1: Audio: mp3 (U[0][0][0] / 0x0055), 44100 Hz, stereo, s16, 128 kb/s
DEBUG 2013-06-22 13:26:34.862 [Thread-69] Output #0, image2, to 'pipe:':
DEBUG 2013-06-22 13:26:34.862 [Thread-69]   Metadata:
DEBUG 2013-06-22 13:26:34.863 [Thread-69]     encoder         : Lavf54.31.100
DEBUG 2013-06-22 13:26:34.863 [Thread-69]     Stream #0:0: Video: mjpeg, yuvj420p, 320x180, q=2-31, 200 kb/s, 90k tbn, 25 tbc
DEBUG 2013-06-22 13:26:34.863 [Thread-69] Stream mapping:
DEBUG 2013-06-22 13:26:34.863 [Thread-69]   Stream #0:0 -> #0:0 (mpeg4 -> mjpeg)
DEBUG 2013-06-22 13:26:34.863 [Thread-69] Press [q] to stop, [?] for help
DEBUG 2013-06-22 13:26:34.864 [Thread-69] [mpeg4 @ 0200a920] looks like this file was encoded with (divx4/(old)xvid/opendivx) -> forcing low_delay flag
DEBUG 2013-06-22 13:26:34.888 [Thread-69] frame=    1 fps=0.0 q=0.0 Lsize=       0kB time=00:00:00.04 bitrate=   0.0kbits/s dup=0 drop=23   
DEBUG 2013-06-22 13:26:34.888 [Thread-69]
DEBUG 2013-06-22 13:26:34.888 [Thread-69] video:11kB audio:0kB subtitle:0 global headers:0kB muxing overhead -100.000000%
DEBUG 2013-06-22 13:26:37.080 [Buffered IO End Checker] Stopping process: ffmpeg.exe-14
DEBUG 2013-06-22 13:26:37.401 [Buffered IO End Checker] Stopping process: ffmpeg.exe-15
DEBUG 2013-06-22 13:29:10.911 [UPNP-AliveMessageSender] Sending ALIVE...
Last edited by chocolateboy on Sun Jun 23, 2013 12:08 am, edited 1 time in total.
Reason: reformatted: please read the FAQ: http://tinyurl.com/4294qo2
Bashie
 
Posts: 1
Joined: Sat Jun 22, 2013 7:31 pm

Return to General Help and Support

Who is online

Users browsing this forum: No registered users and 17 guests