Framerate problems

For help and support with PS3 Media Server in general
Forum rules
Please make sure you follow the Problem Reporting Guidelines before posting if you want a reply.

Framerate problems

Postby Zee530 » Sun Jun 02, 2013 5:16 pm

Hello.

1. T2400 @ 1.83, 2GB, Win 7 32-bit, Ver. 1.72.0
2. PS3
4. Mencoder
5. I noticed that whenever i played a video, the audio from the HDTV in comparison to my computer was a bit squeaky, i tracked the problem down to framerate, the video is playing a bit faster than it does on my computer thus the squeaky audio. This however happens only on mp4 files, i converted an mp4 with squeaky audio to mkv and the framerate and audio played perfectly.
My question: Does the server do anything to the mp4 files or not since the ps3 can natively play these, if there is a setting to change to get the framerate normal for mp4 files pls let me know. However if mp4 files have nothing to do with PMS, pls direct me to a setting on my ps3 i can use to get accurate framerates
6. http://180upload.com/nmv9vldetw19
7.
Code: Select all
Format                                   : MPEG-4
Format profile                           : Base Media / Version 2
Codec ID                                 : mp42
File size                                : 58.4 MiB
Duration                                 : 6mn 47s
Overall bit rate mode                    : Variable
Overall bit rate                         : 1 204 Kbps
Encoded date                             : UTC 2013-05-31 21:34:00
Tagged date                              : UTC 2013-05-31 21:34:00
Writing library                          : Apple QuickTime

Video
ID                                       : 1
Format                                   : AVC
Format/Info                              : Advanced Video Codec
Format profile                           : Main@L3.0
Format settings, CABAC                   : Yes
Format settings, ReFrames                : 5 frames
Format settings, GOP                     : M=2, N=60
Codec ID                                 : avc1
Codec ID/Info                            : Advanced Video Coding
Duration                                 : 6mn 47s
Source duration                          : 6mn 47s
Bit rate mode                            : Variable
Bit rate                                 : 1 052 Kbps
Maximum bit rate                         : 1 105 Kbps
Width                                    : 640 pixels
Height                                   : 360 pixels
Display aspect ratio                     : 16:9
Frame rate mode                          : Constant
Frame rate                               : 30.000 fps
Standard                                 : Component
Color space                              : YUV
Chroma subsampling                       : 4:2:0
Bit depth                                : 8 bits
Scan type                                : Progressive
Bits/(Pixel*Frame)                       : 0.152
Stream size                              : 51.0 MiB (87%)
Source stream size                       : 53.6 MiB (92%)
Language                                 : English
Encoded date                             : UTC 2013-05-31 21:34:00
Tagged date                              : UTC 2013-05-31 21:34:00
mdhd_Duration                            : 407100

Audio
ID                                       : 2
Format                                   : AAC
Format/Info                              : Advanced Audio Codec
Format profile                           : HE-AAC / LC
Codec ID                                 : 40
Duration                                 : 6mn 47s
Bit rate mode                            : Variable
Bit rate                                 : 96.0 Kbps
Maximum bit rate                         : 103 Kbps
Channel(s)                               : 2 channels
Channel positions                        : Front: L R
Sampling rate                            : 44.1 KHz / 22.05 KHz
Compression mode                         : Lossy
Stream size                              : 4.66 MiB (8%)
Language                                 : English
Encoded date                             : UTC 2013-05-31 21:34:00
Tagged date                              : UTC 2013-05-31 21:34:00
Last edited by Raptor399 on Sun Jun 02, 2013 10:50 pm, edited 1 time in total.
Reason: Edited for code fragments
Zee530
 
Posts: 2
Joined: Tue Apr 02, 2013 10:16 pm

Re: Framerate problems

Postby Zee530 » Thu Jun 06, 2013 6:21 pm

Bump!!
Zee530
 
Posts: 2
Joined: Tue Apr 02, 2013 10:16 pm


Return to General Help and Support

Who is online

Users browsing this forum: Bing [Bot], Google [Bot], Yahoo [Bot] and 14 guests