No Audio on my video

For help and support with PS3 Media Server in general
Forum rules
Please make sure you follow the Problem Reporting Guidelines before posting if you want a reply.

No Audio on my video

Postby titanfan » Thu Mar 28, 2013 12:24 am

I have about a 30 second video, which you can download here:

http://rapidshare.com/files/625312920/F ... on-Book.ts

When I play it on my PC with VLC, audio/video is fine. When I play through PMS on my Playstation 3, I get no audio. Any ideas?

Here's the output of mediainfo:

General
ID : 1 (0x1)
Complete name : H:\Firefly\Firefly Opening Narration-Book.ts
Format : MPEG-TS
File size : 45.6 MiB
Duration : 36s 307ms
Overall bit rate mode : Variable
Overall bit rate : 10.5 Mbps

Video
ID : 4113 (0x1011)
Menu ID : 1 (0x1)
Format : AVC
Format/Info : Advanced Video Codec
Format profile : Main@L4.0
Format settings, CABAC : Yes
Format settings, ReFram : 4 frames
Format settings, GOP : M=4, N=32
Codec ID : 27
Duration : 36s 303ms
Bit rate mode : Variable
Bit rate : 9 764 Kbps
Maximum bit rate : 20.0 Mbps
Width : 1 920 pixels
Height : 1 080 pixels
Display aspect ratio : 16:9
Frame rate : 29.970 fps
Color space : YUV
Chroma subsampling : 4:2:0
Bit depth : 8 bits
Scan type : Interlaced
Scan order : Top Field First
Bits/(Pixel*Frame) : 0.157
Stream size : 42.3 MiB (93%)
Color primaries : BT.709
Transfer characteristics : BT.709
Matrix coefficients : BT.709

Audio
ID : 4352 (0x1100)
Menu ID : 1 (0x1)
Format : AAC
Format/Info : Advanced Audio Codec
Format version : Version 4
Format profile : LC
Muxing mode : ADTS
Codec ID : 15
Duration : 36s 266ms
Bit rate mode : Variable
Bit rate : 251 Kbps
Channel(s) : 2 channels
Channel positions : Front: L R
Sampling rate : 48.0 KHz
Compression mode : Lossy
Stream size : 1.09 MiB (2%)
titanfan
 
Posts: 1
Joined: Thu Mar 28, 2013 12:17 am

Return to General Help and Support

Who is online

Users browsing this forum: Google [Bot] and 4 guests