Transcoding Problem Samsung ES6710

For help and support with PS3 Media Server in general
Forum rules
Please make sure you follow the Problem Reporting Guidelines before posting if you want a reply.

Transcoding Problem Samsung ES6710

Postby mc_eddy » Wed Oct 17, 2012 9:51 pm

Hi,

on my NW (Win7 Ult. 64 bit ) with java 7 32 bit and PS3 MS V1.70.1 everything will work fine.

But whwn i try to decode an WMF file the Transcodingbuffer will be filled with 10-40 MB and then jump to -95.291 MB.
The TV will only show Loading and then tell me that possible the file is not correct to play.
Then the Screen gets Black and the Transcodingbuffer is Empty.


What can i do to make it work ?

As Transcoder i use FFmpeg and FFmpeg Audio, but other Engines will also fail.


the file info :

General
Unique ID : 179111599709465259870260521324082422732 (0x86BFA3AAEB142AD98CBA09706510E3CC)
Complete name : D:\720p.wmv
Format : Matroska
Format version : Version 2
File size : 3.85 GiB
Duration : 2h 40mn
Overall bit rate : 3 431 Kbps
Encoded date : UTC 2012-09-01 23:26:22
Writing application : mkvmerge v5.7.0 ('The Whirlwind') built on Jul 8 2012 20:08:51
Writing library : libebml v1.2.3 + libmatroska v1.3.0

Video
ID : 1
Format : AVC
Format/Info : Advanced Video Codec
Format profile : High@L3.2
Format settings, CABAC : Yes
Format settings, ReFrames : 4 frames
Codec ID : V_MPEG4/ISO/AVC
Duration : 2h 40mn
Bit rate : 3 044 Kbps
Width : 1 280 pixels
Height : 720 pixels
Display aspect ratio : 16:9
Frame rate mode : Constant
Frame rate : 50.000 fps
Color space : YUV
Chroma subsampling : 4:2:0
Bit depth : 8 bits
Scan type : Progressive
Bits/(Pixel*Frame) : 0.066
Stream size : 3.34 GiB (87%)
Writing library : x264 core 125 r2208 d9d2288
Encoding settings : cabac=1 / ref=3 / deblock=1:0:0 / analyse=0x3:0x111 / me=hex / subme=7 / psy=1 / psy_rd=1.00:0.00 / mixed_ref=1 / me_range=16 / chroma_me=1 / trellis=1 / 8x8dct=1 / cqm=0 / deadzone=21,11 / fast_pskip=1 / chroma_qp_offset=-2 / threads=3 / lookahead_threads=1 / sliced_threads=0 / nr=0 / decimate=1 / interlaced=0 / bluray_compat=0 / constrained_intra=0 / bframes=3 / b_pyramid=2 / b_adapt=1 / b_bias=0 / direct=1 / weightb=1 / open_gop=0 / weightp=2 / keyint=500 / keyint_min=50 / scenecut=40 / intra_refresh=0 / rc_lookahead=40 / rc=2pass / mbtree=1 / bitrate=3044 / ratetol=1.0 / qcomp=0.60 / qpmin=0 / qpmax=69 / qpstep=4 / cplxblur=20.0 / qblur=0.5 / ip_ratio=1.40 / aq=1:1.00
Default : Yes
Forced : No

Audio
ID : 2
Format : AC-3
Format/Info : Audio Coding 3
Mode extension : CM (complete main)
Format settings, Endianness : Big
Codec ID : A_AC3
Duration : 2h 40mn
Bit rate mode : Constant
Bit rate : 384 Kbps
Channel(s) : 2 channels
Channel positions : Front: L R
Sampling rate : 48.0 KHz
Bit depth : 16 bits
Compression mode : Lossy
Stream size : 442 MiB (11%)
Default : Yes
Forced : No
mc_eddy
 
Posts: 2
Joined: Wed Oct 17, 2012 9:37 pm

Return to General Help and Support

Who is online

Users browsing this forum: No registered users and 21 guests