Sony Bravia doesn't show .mkv file supplied via PMS

For help and support with PS3 Media Server in general
Forum rules
Please make sure you follow the Problem Reporting Guidelines before posting if you want a reply.

Sony Bravia doesn't show .mkv file supplied via PMS

Postby Leopard2A5 » Wed May 23, 2012 5:34 pm

Hi!
I access PMS via my Sony Bravia KDL40EX655.
When i navigate to a folder with the movie in a .mkv file the TV says there's no file there, although it clearly IS there.

The TV accesses my LAN by wifi and the PC is connected by cable.
Intel core i7-950, 6GB RAM

PMS runs with the default configuration when it comes to rendering/muxing, etc.


MediaInfo's output:
Code: Select all
General
Unique ID                                : 189772604279508365459448565558429418740 (0x8EC4DFC65E8B0D07B514AECE8F1504F4)
Complete name                            : E:\Filme\Iron Man\dfd-iron.man-720p.mkv
Format                                   : Matroska
Format version                           : Version 1
File size                                : 6.56 GiB
Duration                                 : 2h 5mn
Overall bit rate                         : 7 459 Kbps
Encoded date                             : UTC 2008-09-12 17:44:42
Writing application                      : mkvmerge v2.2.0 ('Turn It On Again') built on Aug 30 2008 15:10:24
Writing library                          : libebml v0.7.7 + libmatroska v0.8.1

Video
ID                                       : 1
Format                                   : AVC
Format/Info                              : Advanced Video Codec
Format profile                           : High@L4.1
Format settings, CABAC                   : Yes
Format settings, ReFrames                : 5 frames
Codec ID                                 : V_MPEG4/ISO/AVC
Duration                                 : 2h 5mn
Bit rate                                 : 5 946 Kbps
Width                                    : 1 280 pixels
Height                                   : 528 pixels
Display aspect ratio                     : 2.40:1
Frame rate                               : 23.976 fps
Color space                              : YUV
Chroma subsampling                       : 4:2:0
Bit depth                                : 8 bits
Scan type                                : Progressive
Bits/(Pixel*Frame)                       : 0.367
Stream size                              : 5.10 GiB (78%)
Writing library                          : x264 core 61 r965M 3d2983d
Encoding settings                        : cabac=1 / ref=5 / deblock=1:0:0 / analyse=0x3:0x113 / me=umh / subme=7 / psy_rd=1.0:1.0 / brdo=1 / mixed_ref=1 / me_range=16 / chroma_me=1 / trellis=1 / 8x8dct=1 / cqm=0 / deadzone=21,11 / chroma_qp_offset=-4 / threads=6 / nr=0 / decimate=1 / mbaff=0 / bframes=3 / b_pyramid=1 / b_adapt=1 / b_bias=0 / direct=3 / wpredb=1 / bime=1 / keyint=250 / keyint_min=25 / scenecut=40(pre) / rc=2pass / bitrate=5946 / ratetol=1.0 / qcomp=1.00 / qpmin=10 / qpmax=51 / qpstep=4 / cplxblur=20.0 / qblur=0.5 / ip_ratio=1.40 / pb_ratio=1.30 / aq=2:1.00
Language                                 : German
Default                                  : Yes
Forced                                   : No

Audio
ID                                       : 2
Format                                   : DTS
Format/Info                              : Digital Theater Systems
Codec ID                                 : A_DTS
Duration                                 : 2h 5mn
Bit rate mode                            : Constant
Bit rate                                 : 1 510 Kbps
Channel(s)                               : 6 channels
Channel positions                        : Front: L C R, Side: L R, LFE
Sampling rate                            : 48.0 KHz
Bit depth                                : 24 bits
Compression mode                         : Lossy
Stream size                              : 1.33 GiB (20%)
Language                                 : German
Default                                  : Yes
Forced                                   : No


I'm a newbie when it comes to PMS so please be gentle haha!
I'd appreciate any help!
Thanks!
Leopard2A5
 
Posts: 1
Joined: Wed May 23, 2012 5:18 pm

Re: Sony Bravia doesn't show .mkv file supplied via PMS

Postby lfmaestri » Wed Apr 10, 2013 7:20 pm

Hi Brother. I bought this TV last week and found myself in trouble too. But I found a way.

PS3 Media Server, unfortunately, doesn't recognize Sony Bravia KDL-40EX655 automatically. So, go to General Configuration tab and set "Default renderer when automatic detection fails" to "Sony Bravia EX Series" and be happy. Don't worry if your PC fan starts to run at full speed. PMS needs to process videos before sending it to Sony Bravia EX Series. At least, I think it works this way.

If you're using a Ethernet cable, you can choose a high quality on "Transcoding Settings" tab. Go to "Video quality settings" and set "MPEG-2 options" to "keyint=5:vqscale=1:vqmin=1 /* Lossless quality */". You can force it a little more setting this way "keyint=1:vqmax=1:vqmin=1".

But, if you bought the wireless adapter (wi-fi dongle) like me, make a several quality tests like the above, because for certain HD or Full HD videos Sony wi-fi adapter cannot handle the amount of data to receive. So you'll have to set "MPEG-2 options" to "keyint=25:vqmax=5:vqmin=2 /* Good quality for HD Wifi transcoding */" or "keyint=25:vqmax=7:vqmin=2 /* Medium quality for HD Wifi transcoding */".

These setting worked fine to me. I hope I helped you and I hope PMS developers fix this problem.
lfmaestri
 
Posts: 2
Joined: Wed May 23, 2012 12:08 pm

Re: Sony Bravia doesn't show .mkv file supplied via PMS

Postby mazey » Thu Apr 11, 2013 6:08 am

i would force the braviahx.conf with that model as it streams most formats and only transcodes mkv. ure tv should support avi/mp4/mpg etc being a 2012 model.
PMS 1.90.2 SNAPSHOT - HP Proliant Microserver N54L 2.2Ghz - Windows Home Server 2011 (64bit) 8GB - Bravia KDL55HX750
mazey
 
Posts: 770
Joined: Sat Oct 24, 2009 9:07 am


Return to General Help and Support

Who is online

Users browsing this forum: Google [Bot] and 19 guests