Aspect ratio

For help and support with PS3 Media Server in general
Forum rules
Please make sure you follow the Problem Reporting Guidelines before posting if you want a reply.

Re: Aspect ratio

Postby The Fly » Tue Nov 08, 2011 12:02 pm

pedicoq wrote:Hey guys, I discovered a solution for BRAVIA's aspect ratio problem:

put this code in Codecs Specific Parameters:
1 -
Code: Select all
((double) width / height) >= 1.7 && ((double) width / height) <= 1.85 :: -mpegopts vaspect=4/3
((double) width / height) >= 2.3 && ((double) width / height) <= 2.5 :: -mpegopts vaspect=221/100


and this in Custom Options:
2 -
Code: Select all
-vf expand=1:::::16/9


These options are in the tab Transcoding Settings>Video Files Engines>Mencoder.


This works perfect on Bravia KDL46-EX710! Thank you very much!
The Fly
 
Posts: 5
Joined: Fri Aug 26, 2011 7:03 pm

Re: Aspect ratio

Postby pls » Sun Dec 02, 2012 5:19 pm

Up, again. Please help!

I have aupdated to letest version 1.72.00 and still cant use it :( It's over a year since I have this problem and can't use P3MS.

I have tried all parameters fond on the forum and still have identical issue as The Fly. All movies are flat, even the one in 1920x1080. When I stream the file using Windows 7 build in DLNA server it displays correctly, when I use the "Play to" feature it is also correct alny with P3MS it is not.

Here is an example of movie file where additional black stripes are added - plese not, this is 1920x1080 video, it should not be scaled for my Bravia KDL-40EX501.

Code: Select all
Format                           : MPEG-4
Format_Commercial_IfAny          : XDCAM EX 25
Format profile                   : Base Media
Codec ID                         : isom
File size                        : 2.28 GiB
Duration                         : 1h 57mn
Overall bit rate mode            : Variable
Overall bit rate                 : 2 779 Kbps
Encoded date                     : UTC 2010-12-13 17:31:21
Tagged date                      : UTC 2010-12-13 17:31:21

Video
ID                               : 1
Format                           : AVC
Format/Info                      : Advanced Video Codec
Format_Commercial_IfAny          : XDCAM EX 25
Format profile                   : High@L4.0
Format settings, CABAC           : Yes
Format settings, ReFrames        : 3 frames
Codec ID                         : avc1
Codec ID/Info                    : Advanced Video Coding
Duration                         : 1h 57mn
Bit rate mode                    : Variable
Bit rate                         : 2 459 Kbps
Maximum bit rate                 : 25.0 Mbps
Width                            : 1 920 pixels
Height                           : 1 080 pixels
Display aspect ratio             : 16:9
Frame rate mode                  : Constant
Frame rate                       : 23.976 fps
Color space                      : YUV
Chroma subsampling               : 4:2:0
Bit depth                        : 8 bits
Scan type                        : Progressive
Bits/(Pixel*Frame)               : 0.049
Stream size                      : 2.02 GiB (88%)
Title                            : 00011
Writing library                  : x264 core 105 r1732 2b04482
Encoding settings                : cabac=1 / ref=3 / deblock=1:0:0 / analyse=0x3:0x133 / me=umh / subme=7 / psy=1 / psy_rd=1.00:0.00 / mixed_ref=1 / me_range=16 / chroma_me=1 / trellis=1 / 8x8dct=1 / cqm=0 / deadzone=21,11 / fast_pskip=1 / chroma_qp_offset=-2 / threads=6 / sliced_threads=0 / nr=0 / decimate=1 / interlaced=0 / constrained_intra=0 / bframes=3 / b_pyramid=0 / b_adapt=1 / b_bias=0 / direct=1 / weightb=1 / open_gop=0 / weightp=2 / keyint=240 / keyint_min=24 / scenecut=40 / intra_refresh=0 / rc_lookahead=40 / rc=2pass / mbtree=1 / bitrate=2459 / ratetol=1.0 / qcomp=0.60 / qpmin=10 / qpmax=51 / qpstep=4 / cplxblur=20.0 / qblur=0.5 / vbv_maxrate=25000 / vbv_bufsize=25000 / ip_ratio=1.40 / aq=1:1.00 / nal_hrd=vbr
Encoded date                     : UTC 2010-12-13 17:31:21
Tagged date                      : UTC 2010-12-13 17:33:36

Audio
ID                               : 2
Format                           : AAC
Format/Info                      : Advanced Audio Codec
Format profile                   : LC
Codec ID                         : 40
Duration                         : 1h 57mn
Bit rate mode                    : Variable
Bit rate                         : 317 Kbps
Maximum bit rate                 : 334 Kbps
Channel(s)                       : 6 channels
Channel positions                : Front: L C R, Side: L R, LFE
Sampling rate                    : 48.0 KHz
Compression mode                 : Lossy
Stream size                      : 267 MiB (11%)
Title                            : Imported with GPAC 0.4.6-DEV (internal rev. 5)
Language                         : English
Encoded date                     : UTC 2010-12-13 17:33:10
Tagged date                      : UTC 2010-12-13 17:33:36
pls
 
Posts: 10
Joined: Sun May 02, 2010 6:27 pm

Re: Aspect ratio

Postby chocolateboy » Sun Dec 02, 2012 5:24 pm

Please don't necropost. Thread locked.
chocolateboy
Project Member
 
Posts: 2577
Joined: Wed Sep 16, 2009 10:05 am

Previous

Return to General Help and Support

Who is online

Users browsing this forum: No registered users and 8 guests