Can't see my video files on ps3

For help and support with issues specific to Linux/Unix
Forum rules
Please make sure you follow the Problem Reporting Guidelines before posting if you want a reply.

Can't see my video files on ps3

Postby wthpr0 » Tue Mar 15, 2011 4:09 pm

I can't see my files on the PS3, The only error i can find in the log is: "Invalid and inefficient vfw-avi packed B frames detected" which comes ffmpeg:


Code: Select all
Starting ffmpeg -ss 20 -i <file> -an -an -s 320x180 -vframes 1 -f image2 pipe:
[pool-11-thread-2] INFO  16:00:02.093 Attaching thread: ffmpeg
[Thread-100] DEBUG 16:00:02.100 FFmpeg version SVN-r26242, Copyright (c) 2000-2011 the FFmpeg developers
[Thread-100] DEBUG 16:00:02.101   built on Jan  6 2011 14:42:40 with gcc 4.4.5
[Thread-100] DEBUG 16:00:02.101   configuration: --enable-shared
[Thread-100] DEBUG 16:00:02.101   libavutil     50.36. 0 / 50.36. 0
[Thread-100] DEBUG 16:00:02.101   libavcore      0.16. 0 /  0.16. 0
[Thread-100] DEBUG 16:00:02.101   libavcodec    52.102. 0 / 52.102. 0
[Thread-100] DEBUG 16:00:02.101   libavformat   52.92. 0 / 52.92. 0
[Thread-100] DEBUG 16:00:02.101   libavdevice   52. 2. 3 / 52. 2. 3
[Thread-100] DEBUG 16:00:02.101   libavfilter    1.72. 0 /  1.72. 0
[Thread-100] DEBUG 16:00:02.101   libswscale     0.12. 0 /  0.12. 0
[Thread-100] DEBUG 16:00:02.101 [mpeg4 @ 0x1961f20] Invalid and inefficient vfw-avi packed B frames detected
[Thread-100] DEBUG 16:00:02.101 Input #0, avi, from '<file>':
[Thread-100] DEBUG 16:00:02.101   Duration: 01:05:41.22, start: 0.000000, bitrate: 1650 kb/s
[Thread-100] DEBUG 16:00:02.101     Stream #0.0: Video: mpeg4, yuv420p, 720x304 [PAR 1:1 DAR 45:19], 23.98 tbr, 23.98 tbn, 23.98 tbc
[Thread-100] DEBUG 16:00:02.101     Stream #0.1: Audio: ac3, 48000 Hz, 5.1, s16, 448 kb/s
[Thread-100] DEBUG 16:00:02.102 [buffer @ 0x19640b0] w:720 h:304 pixfmt:yuv420p
[Thread-100] DEBUG 16:00:02.103 [scale @ 0x1994380] w:720 h:304 fmt:yuv420p -> w:320 h:180 fmt:yuvj420p flags:0xa0000004
[Thread-100] DEBUG 16:00:02.105 Output #0, image2, to 'pipe:':
[Thread-100] DEBUG 16:00:02.106   Metadata:
[Thread-100] DEBUG 16:00:02.106     encoder         : Lavf52.92.0
[Thread-100] DEBUG 16:00:02.106     Stream #0.0: Video: mjpeg, yuvj420p, 320x180 [PAR 253:190 DAR 2024:855], q=2-31, 200 kb/s, 90k tbn, 23.98 tbc
[Thread-100] DEBUG 16:00:02.106 Stream mapping:
[Thread-100] DEBUG 16:00:02.106   Stream #0.0 -> #0.0
[Thread-100] DEBUG 16:00:02.106 Press [q] to stop encoding
[Thread-100] DEBUG 16:00:02.107 [mpeg4 @ 0x1961f20] Invalid and inefficient vfw-avi packed B frames detected



i have googled around for the error but coulden't find any fix
wthpr0
 
Posts: 2
Joined: Tue Mar 15, 2011 4:04 pm

Re: Can't see my video files on ps3

Postby chocolateboy » Tue Mar 15, 2011 5:44 pm

chocolateboy
Project Member
 
Posts: 2580
Joined: Wed Sep 16, 2009 10:05 am

Re: Can't see my video files on ps3

Postby wthpr0 » Tue Mar 15, 2011 10:41 pm

no that wasen't the porblem, but after waiting for a cuple of hourers it fixt it self :O. maby I just needed to restart the PS3 becuse that is the only thing i can think of that i did differently.
wthpr0
 
Posts: 2
Joined: Tue Mar 15, 2011 4:04 pm


Return to Linux/Unix Support

Who is online

Users browsing this forum: No registered users and 7 guests