Can´t philps handle > 720x576 ?

Discuss alternative media renderers (not PS3) supported by PS3 Media Server (e.g. Xbox 360, TVs &c.)

Can´t philps handle > 720x576 ?

Postby fritschi » Sat Nov 24, 2012 9:23 am

I have troubles playing .ts, .avi files greater than 720x576 with my philips 9604H/12 without stuttering? :( :(

I have a FullHD .ts file which i cant play longer as 1-2 min before stuttering ang hang begins. So i have tryed to make avi-files out of this video. first i made a normal xvid/720x576/1500kb-mp3/stereo/44.1khz/192kb video and this is played fine when i deselect "A/V sync alternative method". Than i have tryed to make a xvid xvid/1280x720/2000kb-mp3/stereo/44.1khz/256kb video -but this video also stutters a lot.
I use wired connection and pms tells i have 78MBit/s connnection.

Isn´t my tv good enough to handle greater files then dvd_resolution? i have tryed original philips.conf and i have tryed PhilipsPFLxxx4 1.0.conf and deleted user.conf before trying new settings. As suggested i have disabled tsmuxer, deselected "Use LPCM for audio", deselected "Keep AC-3 track" (i´m wondering why this suggested settings aren´t in the PhilipsPFLxxx4 1.0.conf)

Thanks for any help

Computer:
Intel DualCore E8500@3.6GHZ
4GB DDR2-800@422
Windows-XP SP3 German - 32bit

Device:
Philips 9604H/12

Network:
Wired LAN
fixed IP

Engine:
MEncoder




i have linked the media-infos of the .ts (not playable), .avi 720x576 (playable), .avi 1280x720 (not good playable)

~~~~~~~~~~~~~~~~~~~~~~~~~~~~~~~~~~~~~~~~~~~~~~~~~~~~~~~~~~~~~~~~~~~~~~~~~~~~~~~~~~~~~~~~~~~~~~~~~~~~~~~~~~~~~~~~
Original .ts *no good play on my philips - stutters very much*

General
ID : 12 (0xC)
Complete name : L:\Action\action.ts
Format : MPEG-TS
File size : 10.3 GiB
Duration : 1h 57mn
Overall bit rate mode : Variable
Overall bit rate : 12.5 Mbps

Video
ID : 511 (0x1FF)
Menu ID : 106 (0x6A)
Format : AVC
Format/Info : Advanced Video Codec
Format profile : High@L4.0
Format settings, CABAC : Yes
Format settings, ReFrames : 3 frames
Format settings, GOP : M=4, N=32
Codec ID : 27
Duration : 1h 57mn
Bit rate : 11.5 Mbps
Width : 1 920 pixels
Height : 1 080 pixels
Display aspect ratio : 16:9
Frame rate : 25.000 fps
Standard : Component
Color space : YUV
Chroma subsampling : 4:2:0
Bit depth : 8 bits
Scan type : Interlaced
Scan order : Top Field First
Bits/(Pixel*Frame) : 0.222
Stream size : 9.47 GiB (92%)
Color primaries : BT.709
Transfer characteristics : BT.709
Matrix coefficients : BT.709

Audio
ID : 515 (0x203)
Menu ID : 106 (0x6A)
Format : AC-3
Format/Info : Audio Coding 3
Mode extension : CM (complete main)
Format settings, Endianness : Big
Codec ID : 6
Duration : 1h 57mn
Bit rate mode : Constant
Bit rate : 384 Kbps
Channel(s) : 2 channels
Channel positions : Front: L R
Sampling rate : 48.0 KHz
Bit depth : 16 bits
Compression mode : Lossy
Delay relative to video : 89ms
Stream size : 323 MiB (3%)
Language : German
Language, more info : Clean effects


~~~~~~~~~~~~~~~~~~~~~~~~~~~~~~~~~~~~~~~~~~~~~~~~~~~~~~~~~~~~~~~~~~~~~~~~~~~~~~~~~~~~~~~~~~~~~~~~~~~~~~~~~+

made avi with 720x576 (plays fine only when i deselect "A/V sync alternative method"

General
Complete name : L:\Action\action.avi
Format : AVI
Format/Info : Audio Video Interleave
File size : 106 MiB
Duration : 8mn 40s
Overall bit rate : 1 704 Kbps

Video
ID : 0
Format : MPEG-4 Visual
Format profile : Advanced Simple@L5
Format settings, BVOP : No
Format settings, QPel : No
Format settings, GMC : No warppoints
Format settings, Matrix : Default (MPEG)
Codec ID : XVID
Codec ID/Hint : XviD
Duration : 8mn 40s
Bit rate : 1 505 Kbps
Width : 720 pixels
Height : 576 pixels
Display aspect ratio : 5:4
Frame rate : 25.000 fps
Standard : PAL
Color space : YUV
Chroma subsampling : 4:2:0
Bit depth : 8 bits
Scan type : Progressive
Compression mode : Lossy
Bits/(Pixel*Frame) : 0.145
Stream size : 93.4 MiB (88%)
Writing library : XviD 1.2.1 (UTC 2008-12-04)

Audio
ID : 1
Format : MPEG Audio
Format version : Version 1
Format profile : Layer 3
Codec ID : 55
Codec ID/Hint : MP3
Duration : 8mn 40s
Bit rate mode : Constant
Bit rate : 192 Kbps
Channel(s) : 2 channels
Sampling rate : 44.1 KHz
Compression mode : Lossy
Stream size : 11.9 MiB (11%)
Alignment : Split accross interleaves
Interleave, duration : 80 ms (2.00 video frames)


~~~~~~~~~~~~~~~~~~~~~~~~~~~~~~~~~~~~~~~~~~~~~~~~~~~~~~~~~~~~~~~~~~~~~~~~~~~~~~~~~~~~~~~~~~~~~~~~~~~~~~

made avi 1280x720 (doesnt play fine - stutters / sound only synchron when i deselect "A/V sync alternative method"

General
Complete name : L:\Action\action.avi
Format : AVI
Format/Info : Audio Video Interleave
File size : 131 MiB
Duration : 8mn 40s
Overall bit rate : 2 105 Kbps

Video
ID : 0
Format : MPEG-4 Visual
Format profile : Advanced Simple@L5
Format settings, BVOP : No
Format settings, QPel : No
Format settings, GMC : No warppoints
Format settings, Matrix : Default (MPEG)
Codec ID : XVID
Codec ID/Hint : XviD
Duration : 8mn 40s
Bit rate : 1 904 Kbps
Width : 1 280 pixels
Height : 720 pixels
Display aspect ratio : 16:9
Frame rate : 25.000 fps
Color space : YUV
Chroma subsampling : 4:2:0
Bit depth : 8 bits
Scan type : Progressive
Compression mode : Lossy
Bits/(Pixel*Frame) : 0.083
Stream size : 118 MiB (90%)
Writing library : XviD 1.2.1 (UTC 2008-12-04)

Audio
ID : 1
Format : MPEG Audio
Format version : Version 1
Format profile : Layer 3
Codec ID : 55
Codec ID/Hint : MP3
Duration : 8mn 40s
Bit rate mode : Constant
Bit rate : 192 Kbps
Channel(s) : 2 channels
Sampling rate : 44.1 KHz
Compression mode : Lossy
Stream size : 11.9 MiB (9%)
Alignment : Split accross interleaves
Interleave, duration : 40 ms (1.00 video frame)
fritschi
 
Posts: 26
Joined: Sun Oct 14, 2012 1:38 pm

Return to Alternative Media Renderers

Who is online

Users browsing this forum: No registered users and 1 guest

cron