Panasonic V10

Discuss alternative media renderers (not PS3) supported by PS3 Media Server (e.g. Xbox 360, TVs &c.)

Re: Panasonic V10

Postby chumley » Mon Nov 26, 2012 12:41 am

Thanks ExSport,

Normal supported files now work fine :D

Unfortunately transcoded ones can't FF/RW and they are still out of sync :(

I have attached the log - I am logging at ALL level so it is a bit big

debug.zip
chumley
 
Posts: 14
Joined: Sat Nov 17, 2012 10:24 pm

Re: Panasonic V10

Postby ExSport » Fri Nov 30, 2012 4:49 pm

Code: Select all
ERROR 2012-11-24 11:15:31.177 [Request Handler] Error in parsing HTTP headers
java.lang.NumberFormatException: For input string: "00:00:00.000"
   at sun.misc.FloatingDecimal.readJavaFormatString(Unknown Source) ~[na:1.7.0]
   at java.lang.Double.parseDouble(Unknown Source) ~[na:1.7.0]
   at net.pms.network.RequestHandler.run(RequestHandler.java:173) ~[pms.jar:na]
   at java.lang.Thread.run(Unknown Source) [na:1.7.0]

Do you have "HTTP Engine v2" enabled?
Please post also pms.conf file and MediaInfo of your file. A/V sync problem can be due to "bad" PMS setting (Alternate A/V sync ON/OFF), number of CPUs used etc...
...or if your audio is AAC. I almost never spotted A/V sync issues with AC3 (I have remux AC3 ticked) but read lot of complains when someone had audio track with AAC.
ExSport
 
Posts: 2168
Joined: Mon Jan 19, 2009 5:40 pm

Re: Panasonic V10

Postby chumley » Sun Dec 02, 2012 10:29 pm

cool - yes I do have "HTTP Engine v2" enabled

Here is my PMS conf:

Code: Select all
thumbnails = true
image_thumbnails = true
alternativeffmpegpath = C:\\Program Files (x86)\\PS3 Media Server\\win32\\dvrms\\ffmpeg_MPGMUX.exe
mencoder_ass = true
mencoder_fontconfig = true
mencoder_ass_defaultstyle = true
uuid = 89b98552-87e1-3550-8538-5b772e77d046
folders = G:\\Kids Media Server
mencoder_nooutofsync = false
renderer_force_default = false
notranscode =
mencoder_remux_ac3 = true


Here are my common transcode settings:

common Transcode Settings.png
Transcode Settings Page
common Transcode Settings.png (142.79 KiB) Viewed 1633 times


here are my MEncoder settings:

MEncoder Settings.png
MEncoder settings page
MEncoder Settings.png (130.74 KiB) Viewed 1633 times



I will try converting another file to AC3 (most of mine are AAC) the only one I have is 11gb and that stutters with the current config file you have given me.

Thanks again for your help :)
chumley
 
Posts: 14
Joined: Sat Nov 17, 2012 10:24 pm

Re: Panasonic V10

Postby ExSport » Sun Dec 02, 2012 11:30 pm

Your pms.conf are quite empty ;)
Weird about your PMS exception in log. What regional settings do you have? Mandatory is if your settings uses "." or "," as a digit separator.
Also try to update your Java version to the latest one. I suppose you are using 1.7.0?
EDIT:
Now I see you are using v1.72 of PMS? In log I saw 1.71, GUI shows 1.72.
Try to use v1.71 to be on the same boat with me.
ExSport
 
Posts: 2168
Joined: Mon Jan 19, 2009 5:40 pm

Re: Panasonic V10

Postby chumley » Mon Dec 03, 2012 9:54 am

Sorry I updated to 1.72 to see if it fixed the issue - I'll downgrade to 1.71 (plus update java) and post a new log.
chumley
 
Posts: 14
Joined: Sat Nov 17, 2012 10:24 pm

Re: Panasonic V10

Postby chumley » Mon Dec 03, 2012 11:11 pm

Ok - so now running 1.71, latest JAVA, performed a test with the same video but different audio - one using AAC and one AC3 - you guessed it the AC3 one is in sync.

I can't FF or RW and have attached the log below:

Debug-AC3-FF-RW.zip
FF/RW Log
(14.98 KiB) Downloaded 100 times

MediaInfo for FF / RW test file:

Code: Select all
General
Complete name                            : G:\Testing\Hi-Def\AC3 Test\Sync Test - AC3.mp4
Format                                   : MPEG-4
Format profile                           : Base Media
Codec ID                                 : isom
File size                                : 3.65 GiB
Duration                                 : 1h 8mn
Overall bit rate                         : 7 666 Kbps
Encoded date                             : UTC 2012-12-02 21:30:10
Tagged date                              : UTC 2012-12-02 21:30:10
Writing application                      : My MP4Box GUI 0.5.6.0 <http://my-mp4box-gui.zymichost.com>

Video
ID                                       : 1
Format                                   : AVC
Format/Info                              : Advanced Video Codec
Format profile                           : High@L4.1
Format settings, CABAC                   : Yes
Format settings, ReFrames                : 4 frames
Codec ID                                 : avc1
Codec ID/Info                            : Advanced Video Coding
Duration                                 : 1h 8mn
Bit rate                                 : 7 472 Kbps
Maximum bit rate                         : 17.7 Mbps
Width                                    : 1 920 pixels
Height                                   : 1 080 pixels
Display aspect ratio                     : 16:9
Frame rate mode                          : Constant
Frame rate                               : 23.976 fps
Color space                              : YUV
Chroma subsampling                       : 4:2:0
Bit depth                                : 8 bits
Scan type                                : Progressive
Bits/(Pixel*Frame)                       : 0.150
Stream size                              : 3.55 GiB (97%)
Title                                    : Imported with GPAC 0.4.6-DEV (internal rev. 5)
Encoded date                             : UTC 2012-12-02 21:30:10
Tagged date                              : UTC 2012-12-02 21:30:29

Audio
ID                                       : 2
Format                                   : AC-3
Format/Info                              : Audio Coding 3
Mode extension                           : CM (complete main)
Format settings, Endianness              : Big
Codec ID                                 : ac-3
Duration                                 : 1h 8mn
Bit rate mode                            : Constant
Bit rate                                 : 192 Kbps
Channel(s)                               : 2 channels
Channel positions                        : Front: L R
Sampling rate                            : 48.0 KHz
Bit depth                                : 16 bits
Compression mode                         : Lossy
Stream size                              : 93.5 MiB (3%)
Title                                    : Imported with GPAC 0.4.6-DEV (internal rev. 5)
Encoded date                             : UTC 2012-12-02 21:30:26
Tagged date                              : UTC 2012-12-02 21:30:29


I also tried an AC3 file that was large and experienced a lot of stuttering - log file also attached:

Debug-Stutter-Test.zip
Stutter Test
(14.02 KiB) Downloaded 94 times

MediaInfo for Stutter test file:

Code: Select all
General
Unique ID                                : 210405607262893740361683780883954179732 (0x9E4AA55CF198367A934AF205B3CE9E94)
Complete name                            : G:\Testing\Hi-Def\Stutter Test\Stutter Test.mkv
Format                                   : Matroska
Format version                           : Version 1
File size                                : 11.1 GiB
Duration                                 : 2h 32mn
Overall bit rate mode                    : Variable
Overall bit rate                         : 10.5 Mbps
Encoded date                             : UTC 2009-01-01 13:28:57
Writing application                      : mkvmerge v2.4.0 ('Fumbling Towards Ecstasy') built on Oct 11 2008 20:13:15
Writing library                          : libebml v0.7.7 + libmatroska v0.8.1

Video
ID                                       : 1
Format                                   : AVC
Format/Info                              : Advanced Video Codec
Format profile                           : High@L4.0
Format settings, CABAC                   : Yes
Format settings, ReFrames                : 3 frames
Codec ID                                 : V_MPEG4/ISO/AVC
Duration                                 : 2h 32mn
Bit rate mode                            : Variable
Bit rate                                 : 9 633 Kbps
Maximum bit rate                         : 25.0 Mbps
Width                                    : 1 920 pixels
Height                                   : 1 080 pixels
Display aspect ratio                     : 16:9
Frame rate mode                          : Constant
Frame rate                               : 23.976 fps
Color space                              : YUV
Chroma subsampling                       : 4:2:0
Bit depth                                : 8 bits
Scan type                                : Progressive
Bits/(Pixel*Frame)                       : 0.194
Stream size                              : 10.2 GiB (92%)
Writing library                          : x264 core 65 r1029M cb3c213
Encoding settings                        : cabac=1 / ref=3 / deblock=1:0:0 / analyse=0x3:0x133 / me=umh / subme=7 / psy_rd=1.0:0.0 / mixed_ref=1 / me_range=16 / chroma_me=1 / trellis=1 / 8x8dct=1 / cqm=0 / deadzone=21,11 / chroma_qp_offset=-2 / threads=6 / nr=0 / decimate=1 / mbaff=0 / bframes=3 / b_pyramid=0 / b_adapt=1 / b_bias=0 / direct=3 / wpredb=1 / keyint=250 / keyint_min=25 / scenecut=40(pre) / rc=crf / crf=22.0 / qcomp=0.60 / qpmin=10 / qpmax=51 / qpstep=4 / vbv_maxrate=25000 / vbv_bufsize=25000 / ip_ratio=1.40 / pb_ratio=1.30 / aq=1:1.00
Default                                  : Yes
Forced                                   : No

Audio
ID                                       : 2
Format                                   : AC-3
Format/Info                              : Audio Coding 3
Mode extension                           : CM (complete main)
Format settings, Endianness              : Big
Codec ID                                 : A_AC3
Duration                                 : 2h 32mn
Bit rate mode                            : Constant
Bit rate                                 : 640 Kbps
Channel(s)                               : 6 channels
Channel positions                        : Front: L C R, Side: L R, LFE
Sampling rate                            : 48.0 KHz
Bit depth                                : 16 bits
Compression mode                         : Lossy
Stream size                              : 697 MiB (6%)
Default                                  : Yes
Forced                                   : No

Menu
00:00:00.000                             : en:00:00:00.000
00:06:23.967                             : en:00:06:23.967
00:10:36.261                             : en:00:10:36.261
00:13:52.582                             : en:00:13:52.582
00:17:54.198                             : en:00:17:54.198
00:21:39.340                             : en:00:21:39.340
00:26:10.027                             : en:00:26:10.027
00:29:36.274                             : en:00:29:36.274
00:31:42.484                             : en:00:31:42.484
00:37:49.058                             : en:00:37:49.058
00:43:34.070                             : en:00:43:34.070
00:46:39.547                             : en:00:46:39.547
00:48:57.768                             : en:00:48:57.768
00:53:19.446                             : en:00:53:19.446
00:57:15.641                             : en:00:57:15.641
00:59:26.354                             : en:00:59:26.354
01:03:59.627                             : en:01:03:59.627
01:08:23.558                             : en:01:08:23.558
01:10:48.327                             : en:01:10:48.327
01:14:24.919                             : en:01:14:24.919
01:18:05.639                             : en:01:18:05.639
01:22:22.437                             : en:01:22:22.437
01:24:48.583                             : en:01:24:48.583
01:30:48.443                             : en:01:30:48.443
01:34:04.973                             : en:01:34:04.973
01:39:57.783                             : en:01:39:57.783
01:42:05.494                             : en:01:42:05.494
01:44:59.919                             : en:01:44:59.919
01:47:00.873                             : en:01:47:00.873
01:51:09.913                             : en:01:51:09.913
01:54:14.639                             : en:01:54:14.639
01:57:04.017                             : en:01:57:04.017
02:00:14.249                             : en:02:00:14.249
02:03:37.577                             : en:02:03:37.577
02:09:07.615                             : en:02:09:07.615
02:12:27.314                             : en:02:12:27.314
02:15:22.781                             : en:02:15:22.781
02:19:58.682                             : en:02:19:58.682
02:24:26.658                             : en:02:24:26.658
02:32:13.207                             : en:02:32:13.207
chumley
 
Posts: 14
Joined: Sat Nov 17, 2012 10:24 pm

Re: Panasonic V10

Postby ExSport » Tue Dec 04, 2012 12:25 pm

Checked your first log right now and see:
Code: Select all
TRACE 2012-12-03 21:45:43.588 [New I/O server worker #1-9] Asked stream chunk : TimeRange [start=0.0, end=null] of Sync Test - AC3.mp4 and player MEncoder
TRACE 2012-12-03 21:45:43.589 [New I/O server worker #1-9] Ready to Stop: false
TRACE 2012-12-03 21:45:43.590 [New I/O server worker #1-9] Sent to socket: Accept-Ranges: bytes
TRACE 2012-12-03 21:45:43.591 [New I/O server worker #1-9] Sent to socket: Connection: keep-alive
TRACE 2012-12-03 21:45:43.592 [New I/O server worker #1-9] Sent to socket: Content-Type: video/mpeg
TRACE 2012-12-03 21:45:43.592 [New I/O server worker #1-9] Sent to socket: Server: Windows_7-x86-6.1, UPnP/1.0, PMS/1.71.0
TRACE 2012-12-03 21:45:43.593 [New I/O server worker #1-9] Sent to socket: TimeSeekRange.dlna.org: npt=00:00:00.00-01:08:05.00/01:08:05.00
TRACE 2012-12-03 21:45:43.593 [New I/O server worker #1-9] Sent to socket: TransferMode.DLNA.ORG: Streaming
TRACE 2012-12-03 21:45:43.593 [New I/O server worker #1-9] Sent to socket: X-Seek-Range: npt=00:00:00.00-01:08:05.00/01:08:05.00
Great! Now no exception was generated for TimeSeekRange 8-)
Code: Select all
TRACE 2012-12-03 21:46:50.764 [New I/O server worker #1-13] Request: HTTP/1.1 : GET : get/0$1$1$2$2$1$1/Sync+Test+-+AC3.mp4
TRACE 2012-12-03 21:46:50.764 [New I/O server worker #1-13] Matched media renderer "PlayStation 3" based on address /192.168.1.66
TRACE 2012-12-03 21:46:50.764 [New I/O server worker #1-13] Received on socket: Connection: keep-alive
TRACE 2012-12-03 21:46:50.765 [New I/O server worker #1-13] Received on socket: Host: 192.168.1.104:5001
TRACE 2012-12-03 21:46:50.765 [New I/O server worker #1-13] Received on socket: TimeSeekRange.dlna.org: npt=20:05:51.744-
TRACE 2012-12-03 21:46:50.765 [New I/O server worker #1-13] Received on socket: transferMode.dlna.org: Streaming
TRACE 2012-12-03 21:46:50.765 [New I/O server worker #1-13] Recognized media renderer PlayStation 3
TRACE 2012-12-03 21:46:50.766 [New I/O server worker #1-13] HTTP: get/0$1$1$2$2$1$1/Sync+Test+-+AC3.mp4 / 0-0
Please don't use PS3 when you are testing Panasonic. It makes garbage from your log.
But I see here: "Received on socket: TimeSeekRange.dlna.org: npt=20:05:51.744-". WTF? Your video is 68min long but seek position is 20h:05m:51s?????
Code: Select all
TRACE 2012-12-03 21:46:50.770 [New I/O server worker #1-13] Asked stream chunk : TimeRange [start=72351.744, end=null] of Sync Test - AC3.mp4 and player MEncoder
DEBUG 2012-12-03 21:46:50.770 [New I/O server worker #1-13] Requesting time seek: 72351.744 seconds
Same as above, time seek to 72351 seconds??? It is 20hours!
Code: Select all
TRACE 2012-12-03 21:46:59.734 [New I/O server worker #1-14] Sent to socket: TimeSeekRange.dlna.org: npt=20:05:51.00-01:08:05.00/01:08:05.00
TRACE 2012-12-03 21:46:59.735 [New I/O server worker #1-14] Sent to socket: TransferMode.DLNA.ORG: Streaming
TRACE 2012-12-03 21:46:59.735 [New I/O server worker #1-14] Sent to socket: X-Seek-Range: npt=20:05:51.00-01:08:05.00/01:08:05.00
Again as above, you are seeking position outside your file length. I don't understand why.
Code: Select all
DEBUG 2012-12-03 21:46:59.925 [mencoder.exe-4] Starting "C:\Program Files (x86)\PS3 Media Server\win32\mencoder.exe" -ss 91107.328 "G:\Testing\Hi-Def\AC3 Test\Sync Test - AC3.mp4" -msglevel statusline=2 -oac copy -of mpeg -mpegopts format=mpeg2:muxrate=500000:vbuf_size=1194:abuf_size=64 -ovc lavc -channels 2 -lavdopts debug=0:threads=8 -lavcopts autoaspect=1:vcodec=mpeg2video:acodec=ac3:abitrate=448:threads=8:keyint=5:vqscale=1:vqmin=3:vqmax=5:vrc_maxrate=44000:vrc_buf_size=7000 -ass -fontconfig -sid -1 -ofps 24000/1001 -lavdopts fast -mc 0.1 -mc 0 -noskip -o \\.\pipe\mencoder1354571219858
As you can see, MEncoder tries to seek 91107sec position, it means 25hours. Something weird on your side.
I never tested MP4 file, do you have some MKV file with AC3? I only tested this kind of files.
ExSport
 
Posts: 2168
Joined: Mon Jan 19, 2009 5:40 pm

Re: Panasonic V10

Postby chumley » Wed Dec 05, 2012 5:53 pm

I'm not using a PS3 when testing, I think this is because the conf file you gave me has the PS3 as the renderer.

I will check with an MKV. I don't know why the video is jumping so far ahead, with non transcoded files it works perfectly.
chumley
 
Posts: 14
Joined: Sat Nov 17, 2012 10:24 pm

Re: Panasonic V10

Postby ExSport » Wed Dec 05, 2012 10:21 pm

You are right, I forgot it 8-)
I spotted "User-Agent: Panasonic MIL DLNA CP" so it cheated me it was detected as Panasonic so you have also other PS3 renderer.
If possible try some MKV file and it will be great to upload somewhere short sample of your mp4 file which generates misleading timeseek positions so I can test it when I will be at home during the weekend.
Thx
ExSport
 
Posts: 2168
Joined: Mon Jan 19, 2009 5:40 pm

Re: Panasonic V10

Postby chumley » Thu Dec 06, 2012 9:22 am

I tried an MKV and I still get the same kind of error, I have attached the log and media info below:

Debug - MKV TEST.zip
MKV Debug log for FF / RW testing
(16.53 KiB) Downloaded 102 times


Code: Select all
General
Unique ID                                : 185407327655216947785710241570946424108 (0x8B7C2705425E435FBA57F2D0207E1D2C)
Complete name                            : G:\Testing\Hi-Def\MKV Test\Sync Test - AC3.mkv
Format                                   : Matroska
Format version                           : Version 2
File size                                : 3.65 GiB
Duration                                 : 1h 8mn
Overall bit rate                         : 7 666 Kbps
Encoded date                             : UTC 2012-12-05 21:23:59
Writing application                      : mkvmerge v5.8.0 ('No Sleep / Pillow') built on Sep  2 2012 15:37:04
Writing library                          : libebml v1.2.3 + libmatroska v1.3.0

Video
ID                                       : 1
Format                                   : AVC
Format/Info                              : Advanced Video Codec
Format profile                           : High@L4.1
Format settings, CABAC                   : Yes
Format settings, ReFrames                : 4 frames
Codec ID                                 : V_MPEG4/ISO/AVC
Duration                                 : 1h 8mn
Bit rate                                 : 7 321 Kbps
Width                                    : 1 920 pixels
Height                                   : 1 080 pixels
Display aspect ratio                     : 16:9
Frame rate mode                          : Constant
Frame rate                               : 23.976 fps
Color space                              : YUV
Chroma subsampling                       : 4:2:0
Bit depth                                : 8 bits
Scan type                                : Progressive
Bits/(Pixel*Frame)                       : 0.147
Stream size                              : 3.48 GiB (96%)
Default                                  : Yes
Forced                                   : No

Audio
ID                                       : 2
Format                                   : AC-3
Format/Info                              : Audio Coding 3
Mode extension                           : CM (complete main)
Format settings, Endianness              : Big
Codec ID                                 : A_AC3
Duration                                 : 1h 8mn
Bit rate mode                            : Constant
Bit rate                                 : 192 Kbps
Channel(s)                               : 2 channels
Channel positions                        : Front: L R
Sampling rate                            : 48.0 KHz
Bit depth                                : 16 bits
Compression mode                         : Lossy
Stream size                              : 93.5 MiB (3%)
Default                                  : Yes
Forced                                   : No
chumley
 
Posts: 14
Joined: Sat Nov 17, 2012 10:24 pm

PreviousNext

Return to Alternative Media Renderers

Who is online

Users browsing this forum: No registered users and 5 guests