Bravia HX750

Discuss alternative media renderers (not PS3) supported by PS3 Media Server (e.g. Xbox 360, TVs &c.)

Bravia HX750

Postby mazey » Wed Jun 27, 2012 10:54 am

just got a bravia KDL55HX750 had to tweak the braviaex.conf abit mpegts with h264 wasnt working and avi with mp4 (some avi with mp4 video would not work so im just transcoding them also had to # out the transcode line because it would transcode everything (really annoying) anyway this works with everything ive thrown at it, its just a pity why the most used format avi with mp4 video didnt always work streaming.

Code: Select all
# ps3mediaserver renderer profile for Sony Bravia EX500/EX700 series
# Refer to PS3.conf for help

RendererName=Sony Bravia EX
RendererIcon=braviaex.png
#===========================================================
# Reported identifying headers:
# X-AV-Client-Info: av=5.0; cn="Sony Corporation"; mn="BRAVIA KDL-32CX520"; mv="1.7";
#===========================================================
#UserAgentSearch=
UserAgentAdditionalHeader=X-AV-Client-Info
UserAgentAdditionalHeaderSearch=(BRAVIA KDL.+EX[3457])|(BRAVIA KDL.+[CHN]X[578])
Video=true
Audio=true
Image=true
SeekByTime=true
TranscodeVideo=MPEGAC3
TranscodeAudio=LPCM
DefaultVBVBufSize=true
MuxH264ToMpegTS=true
MuxDTSToMpeg=false
WrapDTSIntoPCM=false
MuxLPCMToMpeg=false
MaxVideoBitrateMbps=100
MaxVideoWidth=0
MaxVideoHeight=0
H264Level41Limited=true
TranscodeFastStart=true
MimeTypesChanges=audio/wav=audio/L16|video/mp4=video/mpeg
DLNALocalizationRequired=true
#TranscodeExtensions=dvr-ms,dvr,mkv,dv,ty,mov,ogm,hdmov,hdm,rmv,rmvb,rm,asf,evo,asx,flv,m2v,mpe,mod,tivo,ty,tmf,ts,tp,m2p,mp4,m4v,avi,wmv,wm,divx,div,flac,mlp,fla,wma,m4a,aac,dts,mka,ape,ogg,shn,mpc,ra,mp2,wv,oma,aa3,gif,png,arw,cr2,crw,dng,raf,mrw,nef,pef,tif,tiff
#StreamExtensions=

# For Bravia TVs and Sony Bluray players
ForceJPGThumbnails=true

MediaInfo=true
CreateDLNATreeFaster = true
# [Supported video formats]:
# Here we declare support (or lack) of DTS (here, none of the entries declare dts as a supported audio codec)
Supported = f:mpegps|mpegts v:mpeg1|mpeg2|mp4 a:ac3|lpcm|aac|mpa m:video/mpeg
# No H264 for AVI files, plus specific mediainfo attributes, for better auto detection (qpel and gmc are not supported here)
Supported = f:avi|divx v:divx|mjpeg a:mp3|lpcm|mpa|ac3 m:video/x-divx qpel:no gmc:0
Supported = f:mp4 v:mp4|h264 a:ac3|aac m:video/mp4
# WMV files are supported, but not with 5.1 audio: (hence the n:2)
Supported = f:wmv v:wmv|vc1 a:wma n:2 m:video/x-ms-wmv
# [Supported audio formats]:
Supported = f:wav a:dts|lpcm n:6 s:48000 m:audio/wav
Supported = f:wav n:2 s:48000 m:audio/wav
Supported = f:mp3 n:2 m:audio/mpeg
# Apple lossless not supported
Supported = f:aac n:2 a:(?!alac).+ m:audio/x-m4a
Supported = f:wma n:2 m:audio/x-ms-wma
Supported = f:atrac n:2 m:audio/x-oma
# [Supported image formats]
Supported = f:jpg m:image/jpeg
Supported = f:png m:image/png
Supported = f:gif m:image/gif
Supported = f:tiff m:image/tiff


below is the media info for the file that wont stream causing me to take out mp4 from supported avi file stream and transcode instead. can anyone help is there a way to transcode this file and not all avi with mp4 video.

Code: Select all
General
Complete name                            :
Format                                   : AVI
Format/Info                              : Audio Video Interleave
File size                                : 350 MiB
Duration                                 : 42mn 10s
Overall bit rate mode                    : Variable
Overall bit rate                         : 1 161 Kbps
Writing application                      : transcode-1.0.4

Video
ID                                       : 0
Format                                   : MPEG-4 Visual
Format profile                           : Advanced Simple@L5
Format settings, BVOP                    : 2
Format settings, QPel                    : No
Format settings, GMC                     : No warppoints
Format settings, Matrix                  : Default (H.263)
Codec ID                                 : XVID
Codec ID/Hint                            : XviD
Duration                                 : 42mn 10s
Bit rate                                 : 1 011 Kbps
Width                                    : 624 pixels
Height                                   : 352 pixels
Display aspect ratio                     : 16:9
Frame rate                               : 29.970 fps
Color space                              : YUV
Chroma subsampling                       : 4:2:0
Bit depth                                : 8 bits
Scan type                                : Progressive
Compression mode                         : Lossy
Bits/(Pixel*Frame)                       : 0.154
Stream size                              : 305 MiB (87%)
Writing library                          : XviD 1.2.1 (UTC 2008-12-04)

Audio
ID                                       : 1
Format                                   : MPEG Audio
Format version                           : Version 1
Format profile                           : Layer 3
Codec ID                                 : 55
Codec ID/Hint                            : MP3
Duration                                 : 42mn 10s
Bit rate mode                            : Variable
Bit rate                                 : 128 Kbps
Channel(s)                               : 2 channels
Sampling rate                            : 48.0 KHz
Compression mode                         : Lossy
Stream size                              : 41.1 MiB (12%)
Alignment                                : Aligned on interleaves
Interleave, duration                     : 24 ms (0.72 video frame)
PMS 1.90.2 Snapshot - Intel Celeron G1840 2.8Ghz / Asus Z97m-plus / Corsair Vengeance 8GB / Windows 8.1 Pro (64 bit)
mazey
 
Posts: 780
Joined: Sat Oct 24, 2009 9:07 am

Re: Bravia HX750

Postby Symbolicdeathwish » Thu Aug 02, 2012 9:34 am

Thank you for this mate, fixed a few of the problems i was having with my Bravia :)
Symbolicdeathwish
 
Posts: 1
Joined: Thu Aug 02, 2012 8:59 am


Return to Alternative Media Renderers

Who is online

Users browsing this forum: No registered users and 3 guests