Audio Slowly Going Out Of Sync

Discuss alternative media renderers (not PS3) supported by PS3 Media Server (e.g. Xbox 360, TVs &c.)

Audio Slowly Going Out Of Sync

Postby mike_walker » Sun Jan 27, 2013 8:25 pm

Hi All,

I'm going slightly mad here with the audio on videos going slowly out of sync. It doesn't happen on them all but I can't seem to work out what's wrong when they do. The short term solution is to stop the video and restart it - that'll work for a few more minutes before needing to do it again. Needless to say my kids are a bit fed up with me about it. Please help!

This is the MediaInfo for a problem video:

Code: Select all
General
ID                                       : 1 (0x1)
Complete name                            : D:\DVDs\2. Childrens\H-O\Hotel Transylvania.m2ts
Format                                   : BDAV
Format/Info                              : Blu-ray Video
File size                                : 2.18 GiB
Duration                                 : 1h 31mn
Overall bit rate mode                    : Variable
Overall bit rate                         : 3 407 Kbps
Maximum Overall bit rate                 : 35.5 Mbps

Video
ID                                       : 4113 (0x1011)
Menu ID                                  : 1 (0x1)
Format                                   : AVC
Format/Info                              : Advanced Video Codec
Format profile                           : High@L4.1
Format settings, CABAC                   : Yes
Format settings, ReFrames                : 6 frames
Codec ID                                 : 27
Duration                                 : 1h 31mn
Bit rate mode                            : Variable
Bit rate                                 : 2 750 Kbps
Maximum bit rate                         : 40.0 Mbps
Width                                    : 1 280 pixels
Height                                   : 696 pixels
Display aspect ratio                     : 1.85:1
Frame rate                               : 23.976 fps
Color space                              : YUV
Chroma subsampling                       : 4:2:0
Bit depth                                : 8 bits
Scan type                                : Progressive
Bits/(Pixel*Frame)                       : 0.129
Stream size                              : 1.80 GiB (83%)
Writing library                          : x264 core 129 r2230 1cffe9f
Encoding settings                        : cabac=1 / ref=6 / deblock=1:0:0 / analyse=0x3:0x113 / me=hex / subme=7 / psy=1 / psy_rd=1.00:0.00 / mixed_ref=0 / me_range=16 / chroma_me=1 / trellis=1 / 8x8dct=1 / cqm=0 / deadzone=21,11 / fast_pskip=0 / chroma_qp_offset=-2 / threads=3 / lookahead_threads=1 / sliced_threads=0 / nr=0 / decimate=0 / interlaced=0 / bluray_compat=0 / constrained_intra=0 / bframes=6 / b_pyramid=2 / b_adapt=1 / b_bias=0 / direct=1 / weightb=1 / open_gop=0 / weightp=2 / keyint=240 / keyint_min=23 / scenecut=40 / intra_refresh=0 / rc_lookahead=40 / rc=2pass / mbtree=1 / bitrate=2750 / ratetol=1.0 / qcomp=0.60 / qpmin=0 / qpmax=69 / qpstep=4 / cplxblur=20.0 / qblur=0.5 / ip_ratio=1.40 / aq=1:1.0
Language                                 : English

Audio
ID                                       : 4352 (0x1100)
Menu ID                                  : 1 (0x1)
Format                                   : AC-3
Format/Info                              : Audio Coding 3
Mode extension                           : CM (complete main)
Format settings, Endianness              : Big
Codec ID                                 : 129
Duration                                 : 1h 31mn
Bit rate mode                            : Constant
Bit rate                                 : 448 Kbps
Channel(s)                               : 6 channels
Channel positions                        : Front: L C R, Side: L R, LFE
Sampling rate                            : 48.0 KHz
Bit depth                                : 16 bits
Compression mode                         : Lossy
Stream size                              : 293 MiB (13%)
Language                                 : English



Now this is (I'm pretty sure) being fed straight to my Sony Bravia 40EX403 without any encoding or the like. I'm also pretty sure that this .mt2s/AVC/AC3 combination is compatible with this TV. The pc running PS3 Media Server is wired to the TV via my 100Mbs LAN so bandwidth shouldn't be the issue.

Presuming you'll want to see my log file I've attached that, my conf and PMS files...

I've noticed sometimes that if I restart the pc and TV and try again the problem can resolve itself, so am wondering that it might not always be the file itself but some other (Java?) issue.

Any suggestions would be most welcome, thanks.
Attachments
Debug Stuff.zip
(14.92 KiB) Downloaded 56 times
mike_walker
 
Posts: 9
Joined: Mon Sep 13, 2010 8:31 pm

Return to Alternative Media Renderers

Who is online

Users browsing this forum: No registered users and 4 guests