Latest SVN build discussion

Download and discuss official beta builds here

Re: Latest SVN build discussion

Postby mazey » Sat Feb 19, 2011 11:19 pm

wondabwoy wrote:
mazey wrote:just installed r500 works great, i love the option now to use mencoder mt all the time. using 32735 mencoder_mt work great. before most the time h264 used the normal mencoder i didnt know about the resolution restriction imposed on it.. basically its alot better now since 99% of my content is transcoded because i use a bravia 5500 this is very important, and i have a core 2 duo so lets use it fully. :)


Could you please post the line you added to use only mencoder_mt, and where exactly in the expert parameters did you add it? Thx!


i didnt add anything its a feature of the latest builds, just download subjunk's build it has it added, or compile your own.

subjunk build
viewtopic.php?f=14&t=8883&start=0

svn builder
viewtopic.php?f=2&t=4449&start=0
PMS 1.90.2 Snapshot - Intel Celeron G1840 2.8Ghz / Asus Z97m-plus / Corsair Vengeance 8GB / Windows 8.1 Pro (64 bit)
mazey
 
Posts: 785
Joined: Sat Oct 24, 2009 9:07 am

PS3 locks up when trying to stream

Postby ievil » Sat Feb 26, 2011 4:12 am

During the past weeks quite a few mkv files have started to lockup the PS3 when they start streaming.Not sure if this is related to PMS, or the content inside the mkv file. It's been happening more and more after I started using the SB versions.

To remedy it one needs to power off the PS3 the hard way.

The PS3 seems to generate the following messages in the debug.log:

Code: Select all
[New I/O server worker #1-1] INFO  06:08:54.567 -- Renderer Playstation 3 have an estimated network speed of: 512 Mb/s


Log from pms-linux-1.20.412-c38

Code: Select all
[New I/O server worker #1-1] TRACE 06:09:25.506 -- Opened handler on socket /192.168.199.253:57770 // Playstation 3
[New I/O server worker #1-1] TRACE 06:09:25.506 -- Handler infos: HTTP/1.1 : POST : upnp/control/content_directory
[New I/O server worker #1-1] TRACE 06:09:25.506 -- Received on socket: Content-Length: 276
[New I/O server worker #1-1] TRACE 06:09:25.506 -- Received on socket: Content-Type: text/xml; charset="utf-8"
[New I/O server worker #1-1] TRACE 06:09:25.506 -- Received on socket: Host: 192.168.199.250:5001
[New I/O server worker #1-1] TRACE 06:09:25.506 -- Received on socket: SOAPACTION: "urn:schemas-upnp-org:service:ContentDirectory:1#GetSystemUpdateID"
[New I/O server worker #1-1] TRACE 06:09:25.506 -- Received on socket: User-Agent: UPnP/1.0 DLNADOC/1.50
[New I/O server worker #1-1] TRACE 06:09:25.506 -- Received on socket: X-AV-Client-Info: av=5.0; cn="Sony Computer Entertainment Inc."; mn="PLAYSTATION 3"; mv="1.0";
[New I/O server worker #1-1] DEBUG 06:09:25.506 -- HTTP: upnp/control/content_directory / 0-0
[New I/O server worker #1-1] TRACE 06:09:25.507 -- Sent to socket: Content-Length: 335
[New I/O server worker #1-1] TRACE 06:09:25.507 -- Sent to socket: Content-Type: text/xml; charset="utf-8"
[New I/O server worker #1-1] TRACE 06:09:25.507 -- Sent to socket: Server: Linux-amd64-2.6.34-gentoo-r1, UPnP/1.0, PMS/1.20.412c38
[New I/O server worker #1-1] TRACE 06:09:25.536 -- Opened handler on socket /192.168.199.253:57768 // Playstation 3
[New I/O server worker #1-1] TRACE 06:09:25.536 -- Handler infos: HTTP/1.0 : HEAD : get/0$1$4$8$1$5/720p-video.mkv
[New I/O server worker #1-1] TRACE 06:09:25.536 -- Received on socket: Accept-Encoding: identity
[New I/O server worker #1-1] TRACE 06:09:25.536 -- Received on socket: Cache-Control: no-cache
[New I/O server worker #1-1] TRACE 06:09:25.536 -- Received on socket: Connection: close
[New I/O server worker #1-1] TRACE 06:09:25.536 -- Received on socket: Host: 192.168.199.250:5001
[New I/O server worker #1-1] TRACE 06:09:25.536 -- Received on socket: User-Agent: PLAYSTATION 3
[New I/O server worker #1-1] DEBUG 06:09:25.536 -- HTTP: get/0$1$4$8$1$5/720p-video.mkv / 0-0
[New I/O server worker #1-1] TRACE 06:09:25.536 -- Searching for objectId: 0$1$4$8$1$5 with children option: false
[New I/O server worker #1-1] TRACE 06:09:25.536 -- Asked stream chunk [0-0] timeseek: 0.0 of 720p-video.mkv and player MEncoder
[New I/O server worker #1-1] INFO  06:09:25.537 -- Starting transcode/remux of 720p-video.mkv
[New I/O server worker #1-1] TRACE 06:09:25.537 -- Searching an audio track with lang: eng
[New I/O server worker #1-1] TRACE 06:09:25.543 -- Searching an audio track with lang: fre
[New I/O server worker #1-1] TRACE 06:09:25.544 -- Searching an audio track with lang: jpn
[New I/O server worker #1-1] TRACE 06:09:25.545 -- Searching an audio track with lang: ger
[New I/O server worker #1-1] TRACE 06:09:25.546 -- Searching an audio track with lang: und
[New I/O server worker #1-1] TRACE 06:09:25.547 -- Matched audio track: Audio: AC3 / lang: und / ID: 0
[New I/O server worker #1-1] TRACE 06:09:25.547 -- Searching a subtitle track with lang: eng
[New I/O server worker #1-1] TRACE 06:09:25.548 -- Searching a subtitle track with lang: fre
[New I/O server worker #1-1] TRACE 06:09:25.548 -- Searching a subtitle track with lang: jpn
[New I/O server worker #1-1] TRACE 06:09:25.548 -- Searching a subtitle track with lang: ger
[New I/O server worker #1-1] TRACE 06:09:25.548 -- Searching a subtitle track with lang: und
[New I/O server worker #1-1] DEBUG 06:09:25.548 -- Starting ffmpeg -vframes 1 -i /mnt/path/to/file/720p-video.mkv -vcodec copy -f h264 -vbsf h264_mp4toannexb -an -y pipe:
[New I/O server worker #1-1] DEBUG 06:09:25.563 -- Attaching thread: ffmpeg
[Thread-54]   TRACE 06:09:25.573 -- FFmpeg version SVN-r25767, Copyright (c) 2000-2010 the FFmpeg developers
[Thread-54]   TRACE 06:09:25.573 --   built on Dec 16 2010 09:29:18 with gcc 4.4.3
[Thread-54]   TRACE 06:09:25.573 --   configuration: --prefix=/usr --libdir=/usr/lib64 --shlibdir=/usr/lib64 --mandir=/usr/share/man --enable-static --enable-shared --cc=x86_64-pc-linux-gnu-gcc --enable-gpl --enable-version3 --enable-postproc --enable-avfilter --disable-stripping --disable-debug --disable-doc --disable-network --disable-vaapi --disable-ffplay --disable-static --disable-vdpau --enable-libmp3lame --enable-libx264 --enable-libxvid --enable-libfaac --enable-nonfree --disable-indev=v4l --disable-indev=v4l2 --disable-indev=alsa --disable-indev=oss --disable-indev=jack --disable-outdev=alsa --disable-outdev=oss --disable-altivec --cpu=host --enable-hardcoded-tables
[Thread-54]   TRACE 06:09:25.573 --   libavutil     50.33. 0 / 50.33. 0
[Thread-54]   TRACE 06:09:25.573 --   libavcore      0.13. 0 /  0.13. 0
[Thread-54]   TRACE 06:09:25.573 --   libavcodec    52.96. 0 / 52.96. 0
[Thread-54]   TRACE 06:09:25.573 --   libavformat   52.84. 0 / 52.84. 0
[Thread-54]   TRACE 06:09:25.573 --   libavdevice   52. 2. 2 / 52. 2. 2
[Thread-54]   TRACE 06:09:25.573 --   libavfilter    1.62. 0 /  1.62. 0
[Thread-54]   TRACE 06:09:25.573 --   libswscale     0.12. 0 /  0.12. 0
[Thread-54]   TRACE 06:09:25.573 --   libpostproc   51. 2. 0 / 51. 2. 0
[Thread-54]   TRACE 06:09:25.583 -- [matroska,webm @ 0x1825510] Estimating duration from bitrate, this may be inaccurate
[Thread-54]   TRACE 06:09:25.583 -- Seems stream 1 codec frame rate differs from container frame rate: 47.95 (48000/1001) -> 24.00 (24/1)
[Thread-54]   TRACE 06:09:25.584 -- Input #0, matroska,webm, from '/mnt/path/to/file/720p-video.mkv':
[Thread-54]   TRACE 06:09:25.584 --   Duration: 00:39:29.53, start: 0.000000, bitrate: 384 kb/s
[Thread-54]   TRACE 06:09:25.584 --     Stream #0.0: Audio: ac3, 48000 Hz, 5.1, s16, 384 kb/s
[Thread-54]   TRACE 06:09:25.584 --     Stream #0.1(eng): Video: h264, yuv420p, 1280x720, PAR 1:1 DAR 16:9, 23.98 fps, 24 tbr, 1k tbn, 47.95 tbc
[Thread-54]   TRACE 06:09:25.585 -- Output #0, h264, to 'pipe:':
[Thread-54]   TRACE 06:09:25.585 --   Metadata:
[Thread-54]   TRACE 06:09:25.585 --     encoder         : Lavf52.84.0
[Thread-54]   TRACE 06:09:25.586 --     Stream #0.0(eng): Video: libx264, yuv420p, 1280x720 [PAR 1:1 DAR 16:9], q=2-31, 90k tbn, 1k tbc
[Thread-54]   TRACE 06:09:25.586 -- Stream mapping:
[Thread-54]   TRACE 06:09:25.586 --   Stream #0.1 -> #0.0
[Thread-54]   TRACE 06:09:25.586 -- Press [q] to stop encoding
[Thread-54]   TRACE 06:09:25.586 -- video:2kB audio:0kB global headers:0kB muxing overhead 1.958525%
[New I/O server worker #1-1] TRACE 06:09:25.587 -- EOF
[New I/O server worker #1-1] TRACE 06:09:25.587 -- Ready to Stop: true
[New I/O server worker #1-1] TRACE 06:09:25.588 -- H264 file: /mnt/path/to/file/720p-video.mkv: Profile: 100 / level: 31 / ref frames: 5
[Thread-50]   TRACE 06:09:25.593 -- video:15kB audio:0kB global headers:0kB muxing overhead -100.147335%
[New I/O server worker #1-2] TRACE 06:09:25.595 -- EOF
[New I/O server worker #1-2] TRACE 06:09:25.595 -- Ready to Stop: true
[New I/O server worker #1-2] TRACE 06:09:25.596 -- Available Content-Length: 14932
[New I/O server worker #1-2] TRACE 06:09:25.596 -- Sent to socket: Accept-Ranges: bytes
[New I/O server worker #1-2] TRACE 06:09:25.596 -- Sent to socket: Connection: keep-alive
[New I/O server worker #1-2] TRACE 06:09:25.596 -- Sent to socket: Content-Length: 14932
[New I/O server worker #1-2] TRACE 06:09:25.597 -- Sent to socket: Content-Type: image/jpeg
[New I/O server worker #1-2] TRACE 06:09:25.597 -- Sent to socket: Expires: Tue, 21 Jun 2011 22:56:05 GMT
[Thread-33]   DEBUG 06:09:26.393 -- Destroying buffer
[mencoder]    DEBUG 06:09:26.508 -- Starting mencoder -ss 0 /mnt/path/to/file/720p-video.mkv -quiet -quiet -really-quiet -msglevel statusline=-1:mencoder=-1 -channels 6 -ovc copy -of rawaudio -mc 0 -noskip -oac copy -fafmttag 0x2000 -lavcopts acodec=ac3:abitrate=640 -af lavcresample=48000 -srate 48000 -quiet -quiet -o /tmp/javaps3media/1298696965654ffmpegaudio01
[mencoder]    DEBUG 06:09:26.524 -- Attaching thread: mencoder
[Thread-74]   TRACE 06:09:26.547 -- [matroska,webm @ 0x177bc10] Estimating duration from bitrate, this may be inaccurate
[Thread-60]   TRACE 06:09:26.547 -- Opening file /tmp/javaps3media/1298696965654audioout for writing...
[linux/tsMuxeR] DEBUG 06:09:26.608 -- Starting /home/pms/pms-linux-1.20.412-c38/linux/tsMuxeR /tmp/javaps3media/pms-tsmuxer.meta /tmp/javaps3media/1298696965655tsmuxerout.ts
[linux/tsMuxeR] DEBUG 06:09:26.613 -- Reading pipe: /tmp/javaps3media/1298696965655tsmuxerout.ts
[linux/tsMuxeR] TRACE 06:09:26.613 -- Opening file /tmp/javaps3media/1298696965655tsmuxerout.ts for reading...
[linux/tsMuxeR] DEBUG 06:09:26.684 -- Attaching thread: linux/tsMuxeR
[Timer-11]    TRACE 06:09:26.684 -- Buffered Space: 0 bytes / inputs: 0
[Thread-80]   TRACE 06:09:26.685 -- SmartLabs tsMuxeR.  Version 1.10.6  http://www.smlabs.net
[Thread-80]   TRACE 06:09:26.685 -- Decoding H264 stream (track 1): Profile: High@3.1  Resolution: 1280:720p  Frame rate: 23.976
[Thread-80]   TRACE 06:09:26.685 -- Change H264 level from 3.1 to 4
[Thread-80]   TRACE 06:09:26.685 -- H.264 stream does not contain fps field. Muxing fps=23.976
[Thread-80]   TRACE 06:09:26.685 -- H264 bitstream changed: insert nal unit delimiters
[Thread-80]   TRACE 06:09:26.685 -- H264 bitstream changed: insert pict timing and buffering period SEI units
[Thread-80]   TRACE 06:09:26.685 -- Decoding AC3 stream (track 2): Bitrate: 384Kbps Sample Rate: 48KHz Channels: 6
[Thread-80]   TRACE 06:09:26.685 -- B-pyramid level 1 detected. Shift DTS to 2 frames
[Thread-38]   DEBUG 06:09:26.722 -- Stopping process: ffmpeg
[Thread-38]   TRACE 06:09:26.722 -- Killing the Unix process: 30335
[Thread-38]   DEBUG 06:09:26.722 -- Destroying buffer
[Thread-38]   DEBUG 06:09:26.849 -- Destroying buffer
[Thread-43]   DEBUG 06:09:27.066 -- Stopping process: ffmpeg
[Thread-43]   TRACE 06:09:27.066 -- Killing the Unix process: 30342
[Thread-43]   DEBUG 06:09:27.066 -- Destroying buffer
[Thread-43]   DEBUG 06:09:27.214 -- Destroying buffer
[Thread-80]   TRACE 06:09:27.215 -- 100.0% complete
[Thread-80]   TRACE 06:09:27.444 -- 100.0% complete
[Thread-48]   DEBUG 06:09:27.468 -- Stopping process: ffmpeg
[Thread-48]   TRACE 06:09:27.469 -- Killing the Unix process: 30349
[Thread-48]   DEBUG 06:09:27.469 -- Destroying buffer
[Thread-48]   DEBUG 06:09:27.586 -- Destroying buffer
[Thread-80]   TRACE 06:09:27.695 -- 100.0% complete
[Thread-80]   TRACE 06:09:28.034 -- 100.0% complete
[Thread-57]   DEBUG 06:09:28.094 -- Stopping process: ffmpeg
[Thread-57]   TRACE 06:09:28.094 -- Killing the Unix process: 30362
[Thread-57]   DEBUG 06:09:28.094 -- Destroying buffer
[Thread-58]   DEBUG 06:09:28.132 -- Stopping process: ffmpeg
[Thread-58]   TRACE 06:09:28.133 -- Killing the Unix process: 30356
[Thread-58]   DEBUG 06:09:28.133 -- Destroying buffer
[Thread-57]   DEBUG 06:09:28.244 -- Destroying buffer
[Thread-80]   TRACE 06:09:28.361 -- 100.0% complete
[Thread-58]   DEBUG 06:09:28.480 -- Destroying buffer
[Thread-53]   DEBUG 06:09:28.625 -- Stopping process: ffmpeg
[Thread-53]   TRACE 06:09:28.626 -- Killing the Unix process: 30362
[Thread-53]   DEBUG 06:09:28.626 -- Destroying buffer
[Thread-14]   DEBUG 06:09:28.626 -- Stopping process: ffmpeg
[Thread-14]   TRACE 06:09:28.626 -- Killing the Unix process: 30291
[Thread-80]   TRACE 06:09:28.626 -- 100.0% complete
[Thread-14]   DEBUG 06:09:28.626 -- Destroying buffer
[Timer-11]    TRACE 06:09:28.728 -- Buffered Space: 7864320 bytes / inputs: 0
[Thread-19]   DEBUG 06:09:28.850 -- Stopping process: ffmpeg
[Thread-19]   TRACE 06:09:28.850 -- Killing the Unix process: 30298
[Thread-19]   DEBUG 06:09:28.850 -- Destroying buffer
[Thread-80]   TRACE 06:09:29.036 -- 100.0% complete
[Thread-80]   TRACE 06:09:29.484 -- 100.0% complete
[Thread-80]   TRACE 06:09:29.984 -- 100.0% complete
[Thread-80]   TRACE 06:09:30.284 -- 100.0% complete
[Thread-80]   TRACE 06:09:30.574 -- 100.0% complete
[Timer-11]    TRACE 06:09:30.728 -- Buffered Space: 16711680 bytes / inputs: 0
[Thread-80]   TRACE 06:09:31.104 -- 100.0% complete
[Thread-80]   TRACE 06:09:31.574 -- 100.0% complete
[New I/O server worker #1-1] TRACE 06:09:31.609 -- Ready to Stop: true
[New I/O server worker #1-1] TRACE 06:09:31.610 -- Sent to socket: Accept-Ranges: bytes
[New I/O server worker #1-1] TRACE 06:09:31.610 -- Sent to socket: Connection: keep-alive
[New I/O server worker #1-1] TRACE 06:09:31.610 -- Sent to socket: Content-Type: video/mpeg
[New I/O server worker #1-1] TRACE 06:09:31.610 -- Sent to socket: Server: Linux-amd64-2.6.34-gentoo-r1, UPnP/1.0, PMS/1.20.412c38
[New I/O server worker #1-2] TRACE 06:09:31.612 -- Opened handler on socket /192.168.199.253:57767 // Playstation 3
[New I/O server worker #1-2] TRACE 06:09:31.612 -- Handler infos: HTTP/1.0 : GET : get/0$1$4$8$1$5/720p-video.mkv
[New I/O server worker #1-2] TRACE 06:09:31.612 -- Received on socket: Accept-Encoding: identity
[New I/O server worker #1-2] TRACE 06:09:31.612 -- Received on socket: Cache-Control: no-cache
[New I/O server worker #1-2] TRACE 06:09:31.612 -- Received on socket: Connection: close
[New I/O server worker #1-2] TRACE 06:09:31.612 -- Received on socket: Host: 192.168.199.250:5001
[New I/O server worker #1-2] TRACE 06:09:31.612 -- Received on socket: User-Agent: PLAYSTATION 3
[New I/O server worker #1-2] DEBUG 06:09:31.612 -- HTTP: get/0$1$4$8$1$5/720p-video.mkv / 0-0
[New I/O server worker #1-2] TRACE 06:09:31.612 -- Searching for objectId: 0$1$4$8$1$5 with children option: false
[New I/O server worker #1-2] TRACE 06:09:31.613 -- Asked stream chunk [0-0] timeseek: 0.0 of 720p-video.mkv and player MEncoder
[New I/O server worker #1-2] TRACE 06:09:31.613 -- Ready to Stop: false
[New I/O server worker #1-2] TRACE 06:09:31.616 -- Ready to Stop: true
[New I/O server worker #1-1] TRACE 06:09:31.619 -- Opened handler on socket /192.168.199.253:57766 // Playstation 3
[New I/O server worker #1-2] TRACE 06:09:31.619 -- Sent to socket: Accept-Ranges: bytes
[New I/O server worker #1-1] TRACE 06:09:31.619 -- Handler infos: HTTP/1.1 : GET : get/0$1$4$8$1$5/720p-video.mkv
[New I/O server worker #1-2] TRACE 06:09:31.619 -- Sent to socket: Connection: keep-alive
[New I/O server worker #1-1] TRACE 06:09:31.619 -- Received on socket: Accept-Encoding: identity
[New I/O server worker #1-2] TRACE 06:09:31.619 -- Sent to socket: Content-Type: video/mpeg
[New I/O server worker #1-1] TRACE 06:09:31.619 -- Received on socket: Connection: Keep-Alive
[New I/O server worker #1-2] TRACE 06:09:31.619 -- Sent to socket: Server: Linux-amd64-2.6.34-gentoo-r1, UPnP/1.0, PMS/1.20.412c38
[New I/O server worker #1-1] TRACE 06:09:31.619 -- Received on socket: Host: 192.168.199.250:5001
[New I/O server worker #1-1] TRACE 06:09:31.619 -- Received on socket: TimeSeekRange.dlna.org: npt=0.000-
[New I/O server worker #1-1] TRACE 06:09:31.619 -- Received on socket: transferMode.dlna.org: Streaming
[New I/O server worker #1-1] TRACE 06:09:31.619 -- Received on socket: User-Agent: PLAYSTATION 3
[New I/O server worker #1-1] DEBUG 06:09:31.619 -- HTTP: get/0$1$4$8$1$5/720p-video.mkv / 0-0
[New I/O server worker #1-1] TRACE 06:09:31.619 -- Searching for objectId: 0$1$4$8$1$5 with children option: false
[New I/O server worker #1-1] TRACE 06:09:31.619 -- Asked stream chunk [0-0] timeseek: 0.0 of 720p-video.mkv and player MEncoder
[New I/O server worker #1-1] TRACE 06:09:31.619 -- Ready to Stop: false
[New I/O server worker #1-1] TRACE 06:09:31.623 -- Sent to socket: Accept-Ranges: bytes
[New I/O server worker #1-1] TRACE 06:09:31.623 -- Sent to socket: Connection: keep-alive
[New I/O server worker #1-1] TRACE 06:09:31.623 -- Sent to socket: Content-Type: video/mpeg
[New I/O server worker #1-1] TRACE 06:09:31.623 -- Sent to socket: Server: Linux-amd64-2.6.34-gentoo-r1, UPnP/1.0, PMS/1.20.412c38
[New I/O server worker #1-1] TRACE 06:09:31.623 -- Sent to socket: TransferMode.DLNA.ORG: Streaming
[Thread-80]   TRACE 06:09:31.834 -- 100.0% complete
[Thread-80]   TRACE 06:09:32.084 -- 100.0% complete
[Thread-80]   TRACE 06:09:32.394 -- 100.0% complete
[Thread-80]   TRACE 06:09:32.724 -- 100.0% complete
[Timer-11]    TRACE 06:09:32.729 -- Buffered Space: 22061055 bytes / inputs: 1
[Thread-24]   DEBUG 06:09:32.906 -- Stopping process: ffmpeg
[Thread-24]   TRACE 06:09:32.906 -- Killing the Unix process: 30321
[Thread-24]   DEBUG 06:09:32.906 -- Destroying buffer
[Thread-80]   TRACE 06:09:33.012 -- 100.0% complete
[Thread-80]   TRACE 06:09:33.314 -- 100.0% complete
[Thread-29]   DEBUG 06:09:33.530 -- Stopping process: ffmpeg
[Thread-29]   TRACE 06:09:33.530 -- Killing the Unix process: 30328
[Thread-29]   DEBUG 06:09:33.530 -- Destroying buffer
[Thread-80]   TRACE 06:09:33.673 -- 100.0% complete
[Thread-80]   TRACE 06:09:33.953 -- 100.0% complete
[Thread-34]   DEBUG 06:09:33.997 -- Stopping process: ffmpeg
[Thread-34]   TRACE 06:09:33.997 -- Killing the Unix process: 30335
[Thread-34]   DEBUG 06:09:33.997 -- Destroying buffer
[Thread-80]   TRACE 06:09:34.254 -- 100.0% complete
[Thread-39]   DEBUG 06:09:34.281 -- Stopping process: ffmpeg
[Thread-39]   TRACE 06:09:34.281 -- Killing the Unix process: 30342
[Thread-39]   DEBUG 06:09:34.281 -- Destroying buffer
[Thread-80]   TRACE 06:09:34.604 -- 100.0% complete
[Thread-44]   DEBUG 06:09:34.720 -- Stopping process: ffmpeg
[Thread-44]   TRACE 06:09:34.721 -- Killing the Unix process: 30349
[Thread-44]   DEBUG 06:09:34.721 -- Destroying buffer
[Timer-11]    TRACE 06:09:34.867 -- Buffered Space: 33857535 bytes / inputs: 1
[Thread-80]   TRACE 06:09:34.868 -- 100.0% complete
[Thread-80]   TRACE 06:09:35.264 -- 100.0% complete
[Thread-49]   DEBUG 06:09:35.300 -- Stopping process: ffmpeg
[Thread-49]   TRACE 06:09:35.300 -- Killing the Unix process: 30356
[Thread-49]   DEBUG 06:09:35.300 -- Destroying buffer
[Thread-80]   TRACE 06:09:35.624 -- 100.0% complete
[Thread-80]   TRACE 06:09:35.884 -- 100.0% complete
[Thread-80]   TRACE 06:09:36.154 -- 100.0% complete
[Thread-80]   TRACE 06:09:36.463 -- 100.0% complete
[Thread-78]   TRACE 06:09:36.637 -- freeMemory: 48121880
[Thread-78]   TRACE 06:09:36.638 -- totalMemory: 112263168
[Thread-78]   TRACE 06:09:36.638 -- maxMemory: 715849728
[Thread-78]   TRACE 06:09:36.638 -- Extending buffer to 104857600
[Thread-78]   TRACE 06:09:36.728 -- Done extending
[Thread-80]   TRACE 06:09:36.823 -- 100.0% complete
[Timer-11]    TRACE 06:09:36.867 -- Buffered Space: 46637055 bytes / inputs: 1
[Thread-80]   TRACE 06:09:37.193 -- 100.0% complete
[Thread-80]   TRACE 06:09:37.533 -- 100.0% complete
[Thread-80]   TRACE 06:09:37.913 -- 100.0% complete
[Thread-80]   TRACE 06:09:38.193 -- 100.0% complete
[Thread-80]   TRACE 06:09:38.513 -- 100.0% complete
[Timer-11]    TRACE 06:09:38.868 -- Buffered Space: 57450495 bytes / inputs: 1
[Thread-80]   TRACE 06:09:38.883 -- 100.0% complete
[Thread-80]   TRACE 06:09:39.223 -- 100.0% complete
[Thread-80]   TRACE 06:09:39.563 -- 100.0% complete
[Thread-80]   TRACE 06:09:39.904 -- 100.0% complete
[Thread-80]   TRACE 06:09:40.344 -- 100.0% complete



Log from pms-linux-1.21.0-SB17

Code: Select all
Thread-61] DEBUG 06:05:08.618 Opening file /tmp/ps3mediaserver/1298696708413ffmpegvideo for reading...
[mencoder] INFO  06:05:08.667 Starting mencoder -ss 0 /mnt/path/to/file/720p-video.mkv -quiet -quiet -really-quiet -msglevel statusline=-1:mencoder=-1 -ovc copy -nosound -mc 0 -noskip -of rawvideo -o /tmp/ps3mediaserver/1298696708413ffmpegvideo
[Thread-58] DEBUG 06:05:08.673 video:15kB audio:0kB global headers:0kB muxing overhead -100.147335%
[New I/O server worker #1-1] DEBUG 06:05:08.676 EOF
[New I/O server worker #1-1] DEBUG 06:05:08.676 Ready to Stop: true
[New I/O server worker #1-1] DEBUG 06:05:08.677 Available Content-Length: 14932
[New I/O server worker #1-1] DEBUG 06:05:08.678 Sent to socket: Accept-Ranges: bytes
[New I/O server worker #1-1] DEBUG 06:05:08.678 Sent to socket: Connection: keep-alive
[New I/O server worker #1-1] DEBUG 06:05:08.678 Sent to socket: Content-Length: 14932
[New I/O server worker #1-1] DEBUG 06:05:08.678 Sent to socket: Content-Type: image/jpeg
[New I/O server worker #1-1] DEBUG 06:05:08.678 Sent to socket: Expires: Tue, 21 Jun 2011 22:51:48 GMT
[New I/O server worker #1-1] DEBUG 06:05:08.678 Sent to socket: Server: Linux-amd64-2.6.34-gentoo-r1, UPnP/1.0, PMS/1.21.0-SB17
[New I/O server worker #1-1] DEBUG 06:05:08.678 Sent to socket: TransferMode.DLNA.ORG: Interactive
[mencoder] INFO  06:05:08.684 Attaching thread: mencoder
[mencoder] INFO  06:05:08.684 Unix process ID (mencoder): 30186
[Thread-70] DEBUG 06:05:08.712 [matroska,webm @ 0x2ddbb10] Estimating duration from bitrate, this may be inaccurate
[Thread-61] DEBUG 06:05:08.713 Opening file /tmp/ps3mediaserver/1298696708413videoout for writing...
[mkfifo] INFO  06:05:08.718 Starting mkfifo --mode=777 /tmp/ps3mediaserver/1298696708415ffmpegaudio01
[mkfifo] INFO  06:05:08.718 Starting mkfifo --mode=777 /tmp/ps3mediaserver/1298696708415audioout
[mkfifo] INFO  06:05:08.737 Unix process ID (mkfifo): 30195
[mkfifo] INFO  06:05:08.737 Unix process ID (mkfifo): 30196
[Thread-31] INFO  06:05:08.842 Stopping Unix process 30122: ffmpeg
[Thread-31] DEBUG 06:05:08.842 Killing the Unix process: 30122
[Thread-31] INFO  06:05:08.842 Destroying buffer
[Thread-62] DEBUG 06:05:09.164 Opening file /tmp/ps3mediaserver/1298696708415ffmpegaudio01 for reading...
[Thread-31] INFO  06:05:09.164 Destroying buffer
[mencoder] INFO  06:05:09.272 Starting mencoder -ss 0 /mnt/path/to/file/720p-video.mkv -quiet -quiet -really-quiet -msglevel statusline=-1:mencoder=-1 -channels 6 -ovc copy -of rawaudio -mc 0 -noskip -oac copy -fafmttag 0x2000 -lavcopts acodec=ac3:abitrate=640 -af lavcresample=48000 -srate 48000 -quiet -quiet -o /tmp/ps3mediaserver/1298696708415ffmpegaudio01
[New I/O server worker #1-4] DEBUG 06:05:09.272 Sleeping for 5000 milliseconds
[linux/tsMuxeR] INFO  06:05:09.370 Starting /home/pms/pms-linux-1.21.0-SB17/linux/tsMuxeR /tmp/ps3mediaserver/pms-tsmuxer.meta /tmp/ps3mediaserver/1298696708416tsmuxerout.ts
[Thread-36] INFO  06:05:09.369 Stopping Unix process 30129: ffmpeg
[Thread-36] DEBUG 06:05:09.370 Killing the Unix process: 30129
[Thread-36] INFO  06:05:09.471 Destroying buffer
[Thread-62] DEBUG 06:05:09.619 Opening file /tmp/ps3mediaserver/1298696708415audioout for writing...
[Thread-79] DEBUG 06:05:09.622 [matroska,webm @ 0x32a6c10] Estimating duration from bitrate, this may be inaccurate
[mencoder] INFO  06:05:09.622 Attaching thread: mencoder
[mencoder] INFO  06:05:09.623 Unix process ID (mencoder): 30208
[Thread-36] INFO  06:05:09.827 Destroying buffer
[Thread-41] INFO  06:05:09.827 Stopping Unix process 30136: ffmpeg
[Thread-41] DEBUG 06:05:09.827 Killing the Unix process: 30136
[Thread-41] INFO  06:05:09.827 Destroying buffer
[linux/tsMuxeR] INFO  06:05:10.021 Reading pipe: /tmp/ps3mediaserver/1298696708416tsmuxerout.ts
[Thread-41] INFO  06:05:10.411 Destroying buffer
[linux/tsMuxeR] DEBUG 06:05:10.411 Opening file /tmp/ps3mediaserver/1298696708416tsmuxerout.ts for reading...
[Thread-51] INFO  06:05:10.609 Stopping Unix process 30150: ffmpeg
[Thread-51] DEBUG 06:05:10.615 Killing the Unix process: 30150
[Thread-46] INFO  06:05:10.608 Stopping Unix process 30143: ffmpeg
[Thread-46] DEBUG 06:05:10.615 Killing the Unix process: 30143
[Thread-46] INFO  06:05:10.794 Destroying buffer
[Thread-51] INFO  06:05:10.794 Destroying buffer
[Thread-56] INFO  06:05:10.894 Stopping Unix process 30157: ffmpeg
[Thread-56] DEBUG 06:05:11.121 Killing the Unix process: 30157
[Thread-46] INFO  06:05:11.121 Destroying buffer
[Thread-56] INFO  06:05:11.121 Destroying buffer
[Thread-69] INFO  06:05:11.440 Stopping Unix process 30164: ffmpeg
[Thread-69] DEBUG 06:05:11.441 Killing the Unix process: 30164
[Thread-69] INFO  06:05:11.441 Destroying buffer
[linux/tsMuxeR] INFO  06:05:11.441 Attaching thread: linux/tsMuxeR
[Timer-11] DEBUG 06:05:11.441 Buffered Space: 0 bytes / inputs: 0
[Thread-90] DEBUG 06:05:11.441 SmartLabs tsMuxeR.  Version 1.10.6  http://www.smlabs.net
[Thread-90] DEBUG 06:05:11.441 Decoding H264 stream (track 1): Profile: High@3.1  Resolution: 1280:720p  Frame rate: 23.976
[Thread-90] DEBUG 06:05:11.441 Change H264 level from 3.1 to 4
[Thread-90] DEBUG 06:05:11.441 H.264 stream does not contain fps field. Muxing fps=23.976
[Thread-90] DEBUG 06:05:11.441 H264 bitstream changed: insert nal unit delimiters
[linux/tsMuxeR] INFO  06:05:11.441 Unix process ID (/home/pms/pms-linux-1.21.0-SB17/linux/tsMuxeR): 30209
[Thread-90] DEBUG 06:05:11.637 H264 bitstream changed: insert pict timing and buffering period SEI units
[Thread-90] DEBUG 06:05:11.637 Decoding AC3 stream (track 2): Bitrate: 384Kbps Sample Rate: 48KHz Channels: 6
[Thread-90] DEBUG 06:05:11.637 B-pyramid level 1 detected. Shift DTS to 2 frames
[Thread-69] INFO  06:05:11.733 Destroying buffer
[Thread-56] INFO  06:05:12.357 Destroying buffer
[Thread-90] DEBUG 06:05:12.456 100.0% complete
[Thread-90] DEBUG 06:05:12.878 100.0% complete
[Thread-51] INFO  06:05:12.978 Destroying buffer
[Thread-90] DEBUG 06:05:13.303 100.0% complete
[Timer-11] DEBUG 06:05:13.441 Buffered Space: 1966080 bytes / inputs: 0
[Thread-90] DEBUG 06:05:13.604 100.0% complete
[Thread-90] DEBUG 06:05:13.883 100.0% complete
[Thread-90] DEBUG 06:05:14.343 100.0% complete
[New I/O server worker #1-4] DEBUG 06:05:14.370 Finished sleeping for 5000 milliseconds
[New I/O server worker #1-4] DEBUG 06:05:14.371 Ready to Stop: true
[New I/O server worker #1-4] DEBUG 06:05:14.372 Sent to socket: Accept-Ranges: bytes
[New I/O server worker #1-4] DEBUG 06:05:14.372 Sent to socket: Connection: keep-alive
[New I/O server worker #1-4] DEBUG 06:05:14.372 Sent to socket: Content-Type: video/mpeg
[New I/O server worker #1-4] DEBUG 06:05:14.372 Sent to socket: Server: Linux-amd64-2.6.34-gentoo-r1, UPnP/1.0, PMS/1.21.0-SB17
[New I/O server worker #1-2] DEBUG 06:05:14.375 Opened request handler on socket /192.168.199.253:49550 // Playstation 3
[New I/O server worker #1-2] DEBUG 06:05:14.375 Request: HTTP/1.0 : GET : get/0$1$4$8$1$4/720p-video.mkv
[New I/O server worker #1-2] DEBUG 06:05:14.375 Received on socket: Accept-Encoding: identity
[New I/O server worker #1-2] DEBUG 06:05:14.375 Received on socket: Cache-Control: no-cache
[New I/O server worker #1-2] DEBUG 06:05:14.375 Received on socket: Connection: close
[New I/O server worker #1-2] DEBUG 06:05:14.375 Received on socket: Host: 192.168.199.250:5001
[New I/O server worker #1-2] DEBUG 06:05:14.375 Received on socket: User-Agent: PLAYSTATION 3
[New I/O server worker #1-2] INFO  06:05:14.375 HTTP: get/0$1$4$8$1$4/720p-video.mkv / 0-0
[New I/O server worker #1-2] DEBUG 06:05:14.375 Searching for objectId: 0$1$4$8$1$4 with children option: false
[New I/O server worker #1-2] DEBUG 06:05:14.375 Asked stream chunk [0-0] timeseek: 0.0 of 720p-video.mkv and player MEncoder
[New I/O server worker #1-2] DEBUG 06:05:14.375 Ready to Stop: false
[New I/O server worker #1-2] DEBUG 06:05:14.375 Suspend Read: readCount=0 / writeCount=6881280
[New I/O server worker #1-3] DEBUG 06:05:14.380 Opened request handler on socket /192.168.199.253:49549 // Playstation 3
[New I/O server worker #1-3] DEBUG 06:05:14.380 Request: HTTP/1.1 : GET : get/0$1$4$8$1$4/720p-video.mkv
[New I/O server worker #1-3] DEBUG 06:05:14.380 Received on socket: Accept-Encoding: identity
[New I/O server worker #1-3] DEBUG 06:05:14.380 Received on socket: Connection: Keep-Alive
[New I/O server worker #1-3] DEBUG 06:05:14.380 Received on socket: Host: 192.168.199.250:5001
[New I/O server worker #1-3] DEBUG 06:05:14.380 Received on socket: TimeSeekRange.dlna.org: npt=0.000-
[New I/O server worker #1-3] DEBUG 06:05:14.380 Received on socket: transferMode.dlna.org: Streaming
[New I/O server worker #1-3] DEBUG 06:05:14.380 Received on socket: User-Agent: PLAYSTATION 3
[New I/O server worker #1-3] INFO  06:05:14.380 HTTP: get/0$1$4$8$1$4/720p-video.mkv / 0-0
[New I/O server worker #1-3] DEBUG 06:05:14.380 Searching for objectId: 0$1$4$8$1$4 with children option: false
[New I/O server worker #1-3] DEBUG 06:05:14.381 Asked stream chunk [0-0] timeseek: 0.0 of 720p-video.mkv and player MEncoder
[New I/O server worker #1-3] DEBUG 06:05:14.381 Suspend Read: readCount=0 / writeCount=6881280
[Thread-90] DEBUG 06:05:14.663 100.0% complete
[Thread-90] DEBUG 06:05:15.003 100.0% complete
[Thread-90] DEBUG 06:05:15.353 100.0% complete
[New I/O server worker #1-2] DEBUG 06:05:15.376 Resume Read: readCount=0 / writeCount=12779520
[New I/O server worker #1-2] DEBUG 06:05:15.376 Ready to Stop: true
[New I/O server worker #1-2] DEBUG 06:05:15.379 Sent to socket: Accept-Ranges: bytes
[New I/O server worker #1-2] DEBUG 06:05:15.379 Sent to socket: Connection: keep-alive
[New I/O server worker #1-2] DEBUG 06:05:15.379 Sent to socket: Content-Type: video/mpeg
[New I/O server worker #1-2] DEBUG 06:05:15.379 Sent to socket: Server: Linux-amd64-2.6.34-gentoo-r1, UPnP/1.0, PMS/1.21.0-SB17
[New I/O server worker #1-3] DEBUG 06:05:15.381 Ready to Stop: false
[New I/O server worker #1-3] DEBUG 06:05:15.381 Resume Read: readCount=0 / writeCount=12779520
[New I/O server worker #1-3] DEBUG 06:05:15.383 Sent to socket: Accept-Ranges: bytes
[New I/O server worker #1-3] DEBUG 06:05:15.383 Sent to socket: Connection: keep-alive
[New I/O server worker #1-3] DEBUG 06:05:15.383 Sent to socket: Content-Type: video/mpeg
[New I/O server worker #1-3] DEBUG 06:05:15.383 Sent to socket: Server: Linux-amd64-2.6.34-gentoo-r1, UPnP/1.0, PMS/1.21.0-SB17
[New I/O server worker #1-3] DEBUG 06:05:15.383 Sent to socket: TransferMode.DLNA.ORG: Streaming
[Timer-11] DEBUG 06:05:15.441 Buffered Space: 9388031 bytes / inputs: 1
[Thread-90] DEBUG 06:05:15.764 100.0% complete
[Thread-90] DEBUG 06:05:16.024 100.0% complete
[Thread-90] DEBUG 06:05:16.444 100.0% complete
[Thread-90] DEBUG 06:05:16.913 100.0% complete
[Thread-90] DEBUG 06:05:17.213 100.0% complete
[Timer-11] DEBUG 06:05:17.441 Buffered Space: 20160511 bytes / inputs: 1
[Thread-90] DEBUG 06:05:17.513 100.0% complete
[Thread-90] DEBUG 06:05:17.803 100.0% complete
[Thread-90] DEBUG 06:05:18.203 100.0% complete
[Thread-90] DEBUG 06:05:18.503 100.0% complete
[Thread-90] DEBUG 06:05:18.793 100.0% complete
[Thread-90] DEBUG 06:05:19.163 100.0% complete
[Timer-11] DEBUG 06:05:19.441 Buffered Space: 29990911 bytes / inputs: 1
[Thread-90] DEBUG 06:05:19.463 100.0% complete
[Thread-90] DEBUG 06:05:19.803 100.0% complete
[Thread-90] DEBUG 06:05:20.064 100.0% complete
[Thread-90] DEBUG 06:05:20.354 100.0% complete
[Thread-90] DEBUG 06:05:20.684 100.0% complete
[Thread-90] DEBUG 06:05:20.934 100.0% complete
[Timer-11] DEBUG 06:05:21.441 Buffered Space: 40804351 bytes / inputs: 1
[Thread-90] DEBUG 06:05:21.444 100.0% complete
[Thread-90] DEBUG 06:05:21.744 100.0% complete
[Thread-90] DEBUG 06:05:22.033 100.0% complete
[Thread-84] DEBUG 06:05:22.041 freeMemory: 95999880
[Thread-84] DEBUG 06:05:22.042 totalMemory: 223412224
[Thread-84] DEBUG 06:05:22.042 maxMemory: 715849728
[Thread-84] DEBUG 06:05:22.042 Extending buffer to 104857600
[Thread-84] DEBUG 06:05:22.132 Done extending
[Thread-90] DEBUG 06:05:22.434 100.0% complete
[Thread-90] DEBUG 06:05:22.694 100.0% complete
[Thread-90] DEBUG 06:05:22.984 100.0% complete
[Thread-90] DEBUG 06:05:23.384 100.0% complete
[Timer-11] DEBUG 06:05:23.441 Buffered Space: 52600831 bytes / inputs: 1
[Thread-90] DEBUG 06:05:23.704 100.0% complete
[Thread-90] DEBUG 06:05:24.064 100.0% complete
[Thread-90] DEBUG 06:05:24.424 100.0% complete
[Thread-90] DEBUG 06:05:24.674 100.0% complete
[Thread-90] DEBUG 06:05:25.063 100.0% complete
[Thread-90] DEBUG 06:05:25.383 100.0% complete
[Timer-11] DEBUG 06:05:25.441 Buffered Space: 65380351 bytes / inputs: 1
[Thread-90] DEBUG 06:05:25.723 100.0% complete
[Thread-90] DEBUG 06:05:25.974 100.0% complete
[Thread-90] DEBUG 06:05:26.233 100.0% complete
[Thread-90] DEBUG 06:05:26.523 100.0% complete
[Thread-90] DEBUG 06:05:26.923 100.0% complete
[Thread-90] DEBUG 06:05:27.274 100.0% complete
[Timer-11] DEBUG 06:05:27.441 Buffered Space: 78159871 bytes / inputs: 1
[Thread-90] DEBUG 06:05:27.704 100.0% complete
[Thread-90] DEBUG 06:05:28.104 100.0% complete
[Thread-90] DEBUG 06:05:28.463 100.0% complete
[Thread-90] DEBUG 06:05:28.803 100.0% complete
[Timer-11] DEBUG 06:05:29.441 Buffered Space: 85041151 bytes / inputs: 1
[Timer-11] DEBUG 06:05:31.441 Buffered Space: 85041151 bytes / inputs: 1
[Timer-11] DEBUG 06:05:33.441 Buffered Space: 85041151 bytes / inputs: 1
[Timer-11] DEBUG 06:05:35.441 Buffered Space: 85041151 bytes / inputs: 1
[Timer-11] DEBUG 06:05:37.441 Buffered Space: 85041151 bytes / inputs: 1
[Timer-11] DEBUG 06:05:39.442 Buffered Space: 85041151 bytes / inputs: 1
[Timer-11] DEBUG 06:05:41.442 Buffered Space: 85041151 bytes / inputs: 1
[Timer-11] DEBUG 06:05:43.442 Buffered Space: 85041151 bytes / inputs: 1
[Timer-11] DEBUG 06:05:45.442 Buffered Space: 85041151 bytes / inputs: 1
[Timer-11] DEBUG 06:05:47.442 Buffered Space: 85041151 bytes / inputs: 1
[Timer-11] DEBUG 06:05:49.442 Buffered Space: 85041151 bytes / inputs: 1
[Timer-11] DEBUG 06:05:51.442 Buffered Space: 85041151 bytes / inputs: 1
[Timer-11] DEBUG 06:05:53.442 Buffered Space: 85041151 bytes / inputs: 1
[Timer-11] DEBUG 06:05:55.442 Buffered Space: 85041151 bytes / inputs: 1
[Timer-11] DEBUG 06:05:57.442 Buffered Space: 85041151 bytes / inputs: 1
[Timer-11] DEBUG 06:05:59.442 Buffered Space: 85041151 bytes / inputs: 1
[Timer-11] DEBUG 06:06:01.442 Buffered Space: 85041151 bytes / inputs: 1
[Timer-11] DEBUG 06:06:03.442 Buffered Space: 85041151 bytes / inputs: 1
[Timer-11] DEBUG 06:06:05.442 Buffered Space: 85041151 bytes / inputs: 1
[Timer-11] DEBUG 06:06:07.442 Buffered Space: 85041151 bytes / inputs: 1
[Timer-11] DEBUG 06:06:09.442 Buffered Space: 85041151 bytes / inputs: 1
[Timer-11] DEBUG 06:06:11.442 Buffered Space: 85041151 bytes / inputs: 1
[Timer-11] DEBUG 06:06:13.442 Buffered Space: 85041151 bytes / inputs: 1
[Timer-11] DEBUG 06:06:15.442 Buffered Space: 85041151 bytes / inputs: 1
[Timer-11] DEBUG 06:06:17.442 Buffered Space: 85041151 bytes / inputs: 1
[Timer-11] DEBUG 06:06:19.442 Buffered Space: 85041151 bytes / inputs: 1
[Timer-11] DEBUG 06:06:21.442 Buffered Space: 85041151 bytes / inputs: 1
[Timer-11] DEBUG 06:06:23.442 Buffered Space: 85041151 bytes / inputs: 1
[Timer-11] DEBUG 06:06:25.442 Buffered Space: 85041151 bytes / inputs: 1
[Timer-11] DEBUG 06:06:27.442 Buffered Space: 85041151 bytes / inputs: 1
[Timer-11] DEBUG 06:06:29.443 Buffered Space: 85041151 bytes / inputs: 1
[Timer-11] DEBUG 06:06:31.443 Buffered Space: 85041151 bytes / inputs: 1
[Timer-11] DEBUG 06:06:33.443 Buffered Space: 85041151 bytes / inputs: 1
[Timer-11] DEBUG 06:06:35.443 Buffered Space: 85041151 bytes / inputs: 1
[Timer-11] DEBUG 06:06:37.443 Buffered Space: 85041151 bytes / inputs: 1
[Timer-11] DEBUG 06:06:39.443 Buffered Space: 85041151 bytes / inputs: 1
[Timer-11] DEBUG 06:06:41.443 Buffered Space: 85041151 bytes / inputs: 1
[Timer-11] DEBUG 06:06:43.443 Buffered Space: 85041151 bytes / inputs: 1
[Timer-11] DEBUG 06:06:45.443 Buffered Space: 85041151 bytes / inputs: 1
[Timer-11] DEBUG 06:06:47.444 Buffered Space: 85041151 bytes / inputs: 1
[Timer-11] DEBUG 06:06:49.444 Buffered Space: 85041151 bytes / inputs: 1
[Timer-11] DEBUG 06:06:51.444 Buffered Space: 85041151 bytes / inputs: 1
[Timer-11] DEBUG 06:06:53.444 Buffered Space: 85041151 bytes / inputs: 1
[Timer-11] DEBUG 06:06:55.444 Buffered Space: 85041151 bytes / inputs: 1
[Timer-11] DEBUG 06:06:57.444 Buffered Space: 85041151 bytes / inputs: 1
[Timer-11] DEBUG 06:06:59.444 Buffered Space: 85041151 bytes / inputs: 1
[Thread-9] INFO  06:06:59.674 Sending ALIVE...
[Thread-9] DEBUG 06:06:59.674 Setting multicast network interface: name:eth0 (eth0) index: 2 addresses:
/192.168.199.250;

[Thread-9] DEBUG 06:06:59.674 Sending message from multicast socket on network interface: name:eth0 (eth0) index: 2 addresses:
/192.168.199.250;

[Thread-9] DEBUG 06:06:59.674 Multicast socket is on interface: /192.168.199.250
[Thread-9] DEBUG 06:06:59.674 Socket Timeout: 0
[Thread-9] DEBUG 06:06:59.674 Socket TTL: 32


Code: Select all
mediainfo:
General
UniqueID                         : 0 (0x0)
Format                           : Matroska
File size                        : 1.09 GiB
Duration                         : 39mn 29s
Overall bit rate                 : 3 962 Kbps
Encoded date                     : UTC 2010-02-22 21:41:29
Writing application              : no_variable_data
Writing library                  : no_variable_data

Video
ID                               : 2
Format                           : AVC
Format/Info                      : Advanced Video Codec
Format profile                   : High@L3.1
Format settings, CABAC           : Yes
Format settings, ReFrames        : 5 frames
Format settings, GOP             : M=4, N=23
Codec ID                         : V_MPEG4/ISO/AVC
Duration                         : 39mn 29s
Bit rate                         : 3 576 Kbps
Width                            : 1 280 pixels
Height                           : 720 pixels
Display aspect ratio             : 16:9
Frame rate                       : 23.976 fps
Color space                      : YUV
Chroma subsampling               : 4:2:0
Bit depth                        : 8 bits
Scan type                        : Progressive
Bits/(Pixel*Frame)               : 0.162
Stream size                      : 988 MiB (88%)
Writing library                  : x264 core 85 r1442tw
Encoding settings                : cabac=1 / ref=5 / deblock=1:0:0 / analyse=0x3:0x113 / me=umh / subme=8 / psy=1 / psy_rd=1.00:0.00 / mixed_ref=1 / me_range=16 / chroma_me=1 / trellis=1 / 8x8dct=1 / cqm=0 / deadzone=21,11 / fast_pskip=1 / chroma_qp_offset=-2 / threads=12 / sliced_threads=0 / nr=0 / decimate=1 / mbaff=0 / constrained_intra=0 / bframes=3 / b_pyramid=2 / b_adapt=2 / b_bias=0 / direct=3 / wpredb=1 / wpredp=2 / keyint=240 / keyint_min=24 / scenecut=40 / intra_refresh=0 / rc_lookahead=50 / rc=2pass / mbtree=1 / bitrate=3576 / ratetol=1.0 / qcomp=0.60 / qpmin=10 / qpmax=51 / qpstep=4 / cplxblur=20.0 / qblur=0.5 / ip_ratio=1.40 / aq=1:1.00
Language                         : English

Audio
ID                               : 1
Format                           : AC-3
Format/Info                      : Audio Coding 3
Mode extension                   : CM (complete main)
Codec ID                         : A_AC3
Duration                         : 39mn 29s
Bit rate mode                    : Constant
Bit rate                         : 384 Kbps
Channel(s)                       : 6 channels
Channel positions                : Front: L C R, Side: L R, LFE
Sampling rate                    : 48.0 KHz
Bit depth                        : 16 bits
Compression mode                 : Lossy
Stream size                      : 108 MiB (10%)
ievil
 
Posts: 1
Joined: Sat Feb 26, 2011 3:45 am

Re: PMS SubJunk Build (Updated 26/02/2011)

Postby chocolateboy » Sat Feb 26, 2011 4:33 am

Reformatted and moved. Please follow the instructions here when reporting issues.
chocolateboy
Project Member
 
Posts: 2580
Joined: Wed Sep 16, 2009 10:05 am

Re: Latest SVN build discussion

Postby PlaystationFTW » Mon Mar 07, 2011 2:05 pm

Hi
The new tray icon needs some cleanup.Its jaggy :D
PlaystationFTW
 
Posts: 55
Joined: Wed Mar 25, 2009 5:23 am

Re: Latest SVN build discussion

Postby SubJunk » Mon Mar 07, 2011 9:07 pm

It's actually not jaggy, it seems to be a bug with how Windows processes the image. I will try to find a workaround, though.
SubJunk
 
Posts: 1212
Joined: Fri Mar 27, 2009 5:25 am

Re: Latest SVN build discussion

Postby PlaystationFTW » Tue Mar 08, 2011 2:50 pm

Cool man,keep up the great work guys you are GODS to me :D
PlaystationFTW
 
Posts: 55
Joined: Wed Mar 25, 2009 5:23 am

Re: Latest SVN build discussion

Postby taconaut » Fri Mar 11, 2011 9:25 am

What does r513 'lift VLC embargo' change regarding the usage of vlc? I've skimmed through the code, but have a hard time figuring out what it improves (even with all comments).
If you always wanted to have your most recent videos at the top of the folder in the ps3 or wished you could group all videos with the same genre in one folder, have a look at pms-mlx
taconaut
Project Member
 
Posts: 1104
Joined: Sat Apr 11, 2009 12:29 am
Location: Switzerland

Re: Latest SVN build discussion

Postby otmanix » Mon Mar 14, 2011 10:37 pm

After looking at the sourcecode it seems to me that someone is trying to fix PMS support for VLC engine. There's acomment that this experimental support for VLC 1.1.x may work on Windows and Linux.
I didn't test it yet, but nevertheless... thanks again Chocolateboy for spending your sparetime.
I provide NO application support via PM, so please post your question to the forum.
PS3 Media Server related articles on my blog: http://otmanix.de/?cat=11&lang=en
User avatar
otmanix
 
Posts: 528
Joined: Fri Jan 30, 2009 12:40 am
Location: Bavaria, Germany

Re: Latest SVN build discussion

Postby taconaut » Tue Mar 15, 2011 8:01 am

Yep, that's what I figured as well :) I'd be curious to know what improvements can be expected by using vlc as opposed to tsmuxer and mencoder
If you always wanted to have your most recent videos at the top of the folder in the ps3 or wished you could group all videos with the same genre in one folder, have a look at pms-mlx
taconaut
Project Member
 
Posts: 1104
Joined: Sat Apr 11, 2009 12:29 am
Location: Switzerland

Re: Latest SVN build discussion

Postby otmanix » Tue Mar 15, 2011 8:37 pm

taconaut wrote:Yep, that's what I figured as well :) I'd be curious to know what improvements can be expected by using vlc as opposed to tsmuxer and mencoder

VLC is for streaming web content > virtual folder #web#. It used to be default for web but didn't work with VLC > 0.98 and later PMS versions. Then PMSEncoder appeared...
I provide NO application support via PM, so please post your question to the forum.
PS3 Media Server related articles on my blog: http://otmanix.de/?cat=11&lang=en
User avatar
otmanix
 
Posts: 528
Joined: Fri Jan 30, 2009 12:40 am
Location: Bavaria, Germany

PreviousNext

Return to Beta Builds

Who is online

Users browsing this forum: No registered users and 2 guests