Cant play a MKV file - Data is corrupted

Download and discuss official beta builds here

Cant play a MKV file - Data is corrupted

Postby jacaru » Fri Aug 06, 2010 1:11 am

Hello,

I cant play an specific mkv file (Data is corrupted), while I can play others. Dont know why.

IMac running Win7 x64
Playing to PS3 over cable
Using Memcoder
I am trying to play the files along with a SRT subtitle file.

Here is the excerpt of the debug log that looks interesting:

Code: Select all
[Thread-83] DEBUG 00:30:03.282 MEncoder Sherpya-SVN-r30369-4.2.5 (C) 2000-2009 MPlayer Team
[Thread-83] DEBUG 00:30:03.287 success: format: 0  data: 0x0 - 0x45fbffec
[Thread-82] DEBUG 00:30:03.293 [mkv] Track 2 has been compressed with an unknown/unsupported compression
[Thread-82] DEBUG 00:30:03.293 [mkv] algorithm (3). Skipping track.
[Thread-83] DEBUG 00:30:03.293 [mkv] Track ID 1: video (V_MPEG4/ISO/AVC), -vid 0
[Thread-83] DEBUG 00:30:03.293 [mkv] Track ID 2: audio (A_AC3) "English", -aid 0, -alang eng
[Thread-83] DEBUG 00:30:03.293 [mkv] Will play video track 1.
[Thread-83] DEBUG 00:30:03.293 Matroska file format detected.
[Thread-83] DEBUG 00:30:03.293 VIDEO:  [avc1]  1280x720  24bpp  23.976 fps    0.0 kbps ( 0.0 kbyte/s)
[Thread-83] DEBUG 00:30:03.293 [V] filefmt:31  fourcc:0x31637661  size:1280x720  fps:23.976  ftime:=0.0417
[Thread-83] DEBUG 00:30:03.293 ==========================================================================
[Thread-83] DEBUG 00:30:03.294 Opening audio decoder: [ffmpeg] FFmpeg/libavcodec audio decoders
[Thread-82] DEBUG 00:30:03.295 [ac3 @ 03116b20]frame sync error
[Thread-82] DEBUG 00:30:03.295 Unknown/missing audio format -> no sound
[Thread-82] DEBUG 00:30:03.295 Requested audio codec family [a52] (afm=liba52) not available.
[Thread-82] DEBUG 00:30:03.295 Enable it at compilation.
[Thread-83] DEBUG 00:30:03.295 ADecoder init failed :(
[Thread-83] DEBUG 00:30:03.295 Opening audio decoder: [hwac3] AC3/DTS pass-through S/PDIF
[Thread-83] DEBUG 00:30:03.310 hwac3: switched to AC3, 48000 bps, 48000 Hz
[Thread-83] DEBUG 00:30:03.310 AUDIO: 48000 Hz, 2 ch, ac3be, 48.0 kbit/3.12% (ratio: 6000->192000)
[Thread-83] DEBUG 00:30:03.310 Selected audio codec: [hwac3] afm: hwac3 (AC3 through S/PDIF)
[Thread-83] DEBUG 00:30:03.310 ==========================================================================
[Thread-80] INFO  00:30:03.310 Result of \\.\pipe\mencoder1281047400297 : true
[Thread-83] DEBUG 00:30:03.310 PACKET SIZE: 2048 bytes, deltascr: 884
[Thread-83] DEBUG 00:30:03.311 [ass] auto-open
[Thread-82] DEBUG 00:30:03.311 Warning: -ass implies -keep-pts, which may cause "badly interleaved" files.
[Thread-83] DEBUG 00:30:03.332 ==========================================================================
[Thread-83] DEBUG 00:30:03.334 Opening video decoder: [ffmpeg] FFmpeg's libavcodec codec family
[Thread-83] DEBUG 00:30:03.335 Selected video codec: [ffh264] vfm: ffmpeg (FFmpeg H.264)
[Thread-83] DEBUG 00:30:03.335 ==========================================================================
[Thread-82] DEBUG 00:30:03.335 [ass] Init
[Thread-82] DEBUG 00:30:03.335 [ass] Updating font cache
[Thread-82] DEBUG 00:30:03.335 [format] Sample format big-endian AC3 not yet supported
[Thread-82] DEBUG 00:30:03.335 [libaf] Reinitialization did not work, audio filter 'format' returned error code -2
[Thread-82] DEBUG 00:30:03.335 Error at audio filter chain pre-init!
[Thread-83] DEBUG 00:30:03.335 Exiting...
[Thread-80] DEBUG 00:30:03.336 EOF


Here are the details of the file:

Code: Select all
Format                           : Matroska
File size                        : 1.09 GiB
Duration                         : 48mn 43s
Overall bit rate                 : 3 214 Kbps
Writing application              : x264.exe
Writing library                  : mkv2rls x264-tv version built on 2010 jul 11

Video
ID                               : 1
Format                           : AVC
Format/Info                      : Advanced Video Codec
Format profile                   : High@L3.1
Format settings, CABAC           : Yes
Format settings, ReFrames        : 3 frames
Muxing mode                      : Container profile=Unknown@3.1
Codec ID                         : V_MPEG4/ISO/AVC
Duration                         : 48mn 43s
Bit rate                         : 2 824 Kbps
Width                            : 1 280 pixels
Height                           : 720 pixels
Display aspect ratio             : 16:9
Frame rate                       : 23.976 fps
Color space                      : YUV
Chroma subsampling               : 4:2:0
Bit depth                        : 8 bits
Scan type                        : Progressive
Bits/(Pixel*Frame)               : 0.128
Stream size                      : 964 MiB (86%)
Writing library                  : x264 core 88 r1471 1144615
Encoding settings                : cabac=1 / ref=3 / deblock=1:0:0 / analyse=0x3:0x113 / me=hex / subme=6 / psy=1 / psy_rd=1.00:0.00 / mixed_ref=0 / me_range=16 / chroma_me=1 / trellis=1 / 8x8dct=1 / cqm=0 / deadzone=21,11 / fast_pskip=1 / chroma_qp_offset=-2 / threads=20 / sliced_threads=0 / nr=0 / decimate=1 / mbaff=0 / constrained_intra=0 / bframes=3 / b_pyramid=1 / b_adapt=2 / b_bias=0 / direct=1 / wpredb=1 / wpredp=0 / keyint=240 / keyint_min=24 / scenecut=40 / intra_refresh=0 / rc_lookahead=40 / rc=2pass / mbtree=1 / bitrate=2824 / ratetol=1.0 / qcomp=0.60 / qpmin=10 / qpmax=51 / qpstep=4 / cplxblur=20.0 / qblur=0.5 / ip_ratio=1.40 / aq=1:1.00

Audio
ID                               : 2
Format                           : AC-3
Format/Info                      : Audio Coding 3
Mode extension                   : CM (complete main)
Codec ID                         : A_AC3
Duration                         : 48mn 43s
Bit rate mode                    : Constant
Bit rate                         : 384 Kbps
Channel(s)                       : 2 channels
Channel positions                : Front: L R
Sampling rate                    : 48.0 KHz
Bit depth                        : 16 bits
Stream size                      : 134 MiB (12%)
Title                            : English
Language                         : English


Thanks for the help.
jacaru
 
Posts: 3
Joined: Fri Aug 06, 2010 12:57 am



Return to Beta Builds

Who is online

Users browsing this forum: No registered users and 4 guests