Latest Mac OS X beta build

Download and discuss official beta builds here

Re: Latest Mac OS X beta build

Postby macfixme » Sun Nov 13, 2011 5:09 pm

It is not bogus, it's just not for x86_64. So I assume it won't work on Lion.

This one is for ppc and i386. the last one was for i386 and x86_64. Nice would be to have one for all three architectures...
User avatar
macfixme
 
Posts: 6
Joined: Sun Nov 13, 2011 4:49 pm

Re: Latest Mac OS X beta build

Postby Raptor399 » Sat Nov 19, 2011 1:19 pm

Fixed in r997.
Raptor399
Project Member
 
Posts: 1916
Joined: Thu Mar 10, 2011 12:06 am

Re: Latest Mac OS X beta build

Postby robotpriest » Sat Nov 19, 2011 11:49 pm

I'm using 1.50b2 and h264 stuff looks absolutely gorgeous but my mpeg2 stuff (from MakeMKV DVD rips) is super blocky. I mean blocky like 56K modem blocky.
robotpriest
 
Posts: 8
Joined: Thu Mar 05, 2009 6:22 pm

Re: Latest Mac OS X beta build

Postby robotpriest » Sat Nov 19, 2011 11:52 pm

I should have mentioned that I mean when streaming to PS3.
robotpriest
 
Posts: 8
Joined: Thu Mar 05, 2009 6:22 pm

Re: Latest Mac OS X beta build

Postby XenoPhex » Mon Nov 21, 2011 12:08 am

(Note: Running off of SVN r1003)
I feel like I've had this problem for a while, but with certain mp4 files with multiple audio/subs I keep having mencoder fail on me (immediately after it starts), and it looks like it's primarily a problem with movies (not just mp4s) that have multichannel AAC audio. I'm not sure if I got a response from someone about it (spent an hour looking through 40+ pages of a search results for something) but I'll give you guys the errors I'm seeing.

This is what I'm getting out of the debug.log. It's not much, but if I can figure out how to get more info about the problem it'd be much appreciated:
Code: Select all
[New I/O server worker #1-3] INFO  16:23:10.278 Starting transcode/remux of [TV-J] Kidou Senshi Gundam UC Unicorn - episode.04 [BD 1920x1080 h264+AAC(5.1ch JP,EN) Sub(JP,EN,FR,SP,CH)].mp4
[osx/mencoder] DEBUG 16:23:10.292 Starting /pms/osx/mencoder -ss 0 -quiet "/Anime/Gundam Unicorn/[TV-J] Kidou Senshi Gundam UC Unicorn - episode.04 [BD 1920x1080 h264+AAC(5.1ch JP,EN) Sub(JP,EN,FR,SP,CH)].mp4" -quiet -quiet -oac lavc -of mpeg -quiet -quiet -mpegopts format=mpeg2:muxrate=500000:vbuf_size=1194:abuf_size=64 -ovc lavc -channels 6 -lavdopts debug=0:threads=4 -lavcopts autoaspect=1:vcodec=mpeg2video:acodec=ac3:abitrate=2560:threads=4:keyint=5:vqscale=1:vqmin=1:vrc_maxrate=54000:vrc_buf_size=7000 -subcp UTF-8 -subfont /System/Library/Frameworks/JavaVM.framework/Versions/1.5.0/Home/lib/fonts/LucidaSansRegular.ttf -subfont-text-scale 3 -subfont-outline 1 -subfont-blur 1 -subpos 98 -aid 1 -sid 1 -quiet -quiet -ofps 24000/1001 -quiet -quiet -lavdopts fast -mc 0.1 -quiet -af lavcresample=48000 -srate 48000 -o - -really-quiet -msglevel statusline=2
[osx/mencoder] DEBUG 16:23:10.357 Attaching thread: osx/mencoder
[osx/mencoder] DEBUG 16:23:10.369 Unix process ID (/pms/osx/mencoder): 33908
[osx/mencoder] INFO  16:23:10.447 Process /pms/osx/mencoder has a return code of 1! Maybe an error occurred... check the log file


Here's the file info from MediaInfo:
Code: Select all
General
Complete name                            : /Anime/Gundam Unicorn/[TV-J] Kidou Senshi Gundam UC Unicorn - episode.04 [BD 1920x1080 h264+AAC(5.1ch JP,EN) Sub(JP,EN,FR,SP,CH)].mp4
Format                                   : MPEG-4
Format profile                           : Base Media
Codec ID                                 : isom
File size                                : 2.23 GiB
Duration                                 : 59mn 50s
Overall bit rate mode                    : Variable
Overall bit rate                         : 5 324 Kbps
Movie name                               : 機動戦士ガンダムUC ユニコーン episode.04 「重力の井戸の底で」
Encoded date                             : UTC 2011-11-11 08:30:16
Tagged date                              : UTC 2011-11-12 08:31:25

Video
ID                                       : 1
Format                                   : AVC
Format/Info                              : Advanced Video Codec
Format profile                           : High@L4.1
Format settings, CABAC                   : Yes
Format settings, ReFrames                : 4 frames
Codec ID                                 : avc1
Codec ID/Info                            : Advanced Video Coding
Duration                                 : 59mn 50s
Bit rate                                 : 3 974 Kbps
Maximum bit rate                         : 20.6 Mbps
Width                                    : 1 920 pixels
Height                                   : 1 080 pixels
Display aspect ratio                     : 16:9
Frame rate mode                          : Constant
Frame rate                               : 23.976 fps
Color space                              : YUV
Chroma subsampling                       : 4:2:0
Bit depth                                : 8 bits
Scan type                                : Progressive
Bits/(Pixel*Frame)                       : 0.080
Stream size                              : 1.66 GiB (75%)
Writing library                          : x264 core 106 r1732+9_DANGEROUS ac97594
Encoding settings                        : cabac=1 / ref=4 / deblock=1:-1:-1 / analyse=0x3:0x113 / me=umh / subme=9 / psy=1 / fade_compensate=0.00 / psy_rd=0.75:0.25 / mixed_ref=1 / me_range=16 / chroma_me=1 / trellis=2 / 8x8dct=1 / cqm=1 / deadzone=21,11 / fast_pskip=0 / chroma_qp_offset=-4 / threads=12 / sliced_threads=0 / nr=0 / decimate=0 / interlaced=0 / constrained_intra=0 / fgo=0 / bframes=6 / b_pyramid=0 / b_adapt=1 / b_bias=0 / direct=3 / weightb=1 / open_gop=0 / weightp=2 / keyint=240 / keyint_min=1 / scenecut=60 / intra_refresh=0 / rc_lookahead=40 / rc=crf / mbtree=0 / crf=20.0 / qcomp=0.60 / qpmin=8 / qpmax=42 / qpstep=8 / vbv_maxrate=62500 / vbv_bufsize=78125 / crf_max=0.0 / ip_ratio=1.40 / pb_ratio=1.30 / aq=2 / aq-strength=0.25 / aq-sensitivity=12.00 / aq-ifactor=1.00 / aq-pfactor=1.00 / aq-bfactor=1.00 / aq2=1 / aq2-strength=0.25 / aq2-sensitivity=15.00 / nal_hrd=none
Encoded date                             : UTC 2011-11-12 08:10:41
Tagged date                              : UTC 2011-11-11 08:30:43
Color primaries                          : BT.709-5, BT.1361, IEC 61966-2-4, SMPTE RP177
Transfer characteristics                 : BT.709-5, BT.1361
Matrix coefficients                      : BT.709-5, BT.1361, IEC 61966-2-4 709, SMPTE RP177

Audio #1
ID                                       : 2
Format                                   : AAC
Format/Info                              : Advanced Audio Codec
Format profile                           : LC
Codec ID                                 : 40
Duration                                 : 59mn 50s
Bit rate mode                            : Constant
Bit rate                                 : 640 Kbps
Channel(s)                               : 6 channels
Channel positions                        : Front: L C R, Side: L R, LFE
Sampling rate                            : 48.0 KHz
Compression mode                         : Lossy
Stream size                              : 274 MiB (12%)
Title                                    : JAPANESE
Language                                 : Japanese
Encoded date                             : UTC 2011-11-11 08:30:33
Tagged date                              : UTC 2011-11-11 08:30:43

Audio #2
ID                                       : 3
Format                                   : AAC
Format/Info                              : Advanced Audio Codec
Format profile                           : LC
Codec ID                                 : 40
Duration                                 : 59mn 50s
Bit rate mode                            : Variable
Bit rate                                 : 640 Kbps
Maximum bit rate                         : 645 Kbps
Channel(s)                               : 6 channels
Channel positions                        : Front: L C R, Side: L R, LFE
Sampling rate                            : 48.0 KHz
Compression mode                         : Lossy
Stream size                              : 274 MiB (12%)
Title                                    : ENGLISH
Language                                 : English
Encoded date                             : UTC 2011-11-11 08:30:40
Tagged date                              : UTC 2011-11-11 08:30:43

Text #1
ID                                       : 4
Format                                   : mp4s
Codec ID                                 : E0
Duration                                 : 56mn 24s
Bit rate mode                            : Variable
Bit rate                                 : 9 583 bps
Maximum bit rate                         : 3 727 Mbps
Stream size                              : 3.87 MiB (0%)
Language                                 : Japanese
Encoded date                             : UTC 2011-11-11 08:30:42
Tagged date                              : UTC 2011-11-11 08:30:43

Text #2
ID                                       : 5
Format                                   : mp4s
Codec ID                                 : E0
Duration                                 : 59mn 44s
Bit rate mode                            : Variable
Bit rate                                 : 9 748 bps
Maximum bit rate                         : 3 861 Mbps
Stream size                              : 4.16 MiB (0%)
Language                                 : English
Encoded date                             : UTC 2011-11-11 08:30:42
Tagged date                              : UTC 2011-11-11 08:30:43

Text #3
ID                                       : 6
Format                                   : mp4s
Codec ID                                 : E0
Duration                                 : 59mn 44s
Bit rate mode                            : Variable
Bit rate                                 : 8 992 bps
Maximum bit rate                         : 100 Kbps
Stream size                              : 3.84 MiB (0%)
Language                                 : French
Encoded date                             : UTC 2011-11-11 08:30:42
Tagged date                              : UTC 2011-11-11 08:30:43

Text #4
ID                                       : 7
Format                                   : mp4s
Codec ID                                 : E0
Duration                                 : 59mn 44s
Bit rate mode                            : Variable
Bit rate                                 : 9 892 bps
Maximum bit rate                         : 3 861 Mbps
Stream size                              : 4.23 MiB (0%)
Language                                 : Spanish
Encoded date                             : UTC 2011-11-11 08:30:43
Tagged date                              : UTC 2011-11-11 08:30:43

Text #5
ID                                       : 8
Format                                   : mp4s
Codec ID                                 : E0
Duration                                 : 59mn 44s
Bit rate mode                            : Variable
Bit rate                                 : 11.2 Kbps
Maximum bit rate                         : 4 042 Mbps
Stream size                              : 4.81 MiB (0%)
Language                                 : Chinese
Encoded date                             : UTC 2011-11-11 08:30:43
Tagged date                              : UTC 2011-11-11 08:30:43

Text #6
ID                                       : 9
Format                                   : mp4s
Codec ID                                 : E0
Duration                                 : 59mn 44s
Bit rate mode                            : Variable
Bit rate                                 : 11.2 Kbps
Maximum bit rate                         : 4 042 Mbps
Stream size                              : 4.80 MiB (0%)
Language                                 : Chinese
Encoded date                             : UTC 2011-11-11 08:30:43
Tagged date                              : UTC 2011-11-11 08:30:43

Menu
00:00:00.000                             : AVANT-TITLE
00:03:50.772                             : PART A
00:34:00.621                             : PART B
00:56:30.428                             : ENDING


The weirdest thing is, even when I set the output from 6 channels (5.1) to 2 channels (2.0), it can't seem to select the proper audio channel (always selects english even though I selected japanese from the #Transcode folder).

==EDIT==
Ran the same command without all them quiets and got the following:
Code: Select all
pms/osx/mencoder -ss 0 "/Anime/Gundam Unicorn/[TV-J] Kidou Senshi Gundam UC Unicorn - episode.04 [BD 1920x1080 h264+AAC(5.1ch JP,EN) Sub(JP,EN,FR,SP,CH)].mp4" -oac lavc -of mpeg -mpegopts format=mpeg2:muxrate=500000:vbuf_size=1194:abuf_size=64 -ovc lavc -channels 6 -lavdopts debug=0:threads=4 -lavcopts autoaspect=1:vcodec=mpeg2video:acodec=ac3:abitrate=2560:threads=4:keyint=5:vqscale=1:vqmin=1:vrc_maxrate=54000:vrc_buf_size=7000 -subcp UTF-8 -subfont /System/Library/Frameworks/JavaVM.framework/Versions/1.5.0/Home/lib/fonts/LucidaSansRegular.ttf -subfont-text-scale 3 -subfont-outline 1 -subfont-blur 1 -subpos 98 -aid 1 -sid 1 -ofps 24000/1001 -lavdopts fast -mc 0.1 -af lavcresample=48000 -srate 48000 -o - -msglevel statusline=2                                                                                   
MEncoder SB18 (C) 2000-2011 MPlayer Team
Custom build by SubJunk, http://www.spirton.com

success: format: 0  data: 0x0 - 0x8e6e61b4
libavformat file format detected.
[lavf] stream 0: video (h264), -vid 0
[lavf] stream 1: audio (aac), -aid 0, -alang jpn
[lavf] stream 2: audio (aac), -aid 1, -alang eng
[lavf] stream 3: subtitle (dvdsub), -sid 0, -slang jpn
[lavf] stream 4: subtitle (dvdsub), -sid 1, -slang eng
[lavf] stream 5: subtitle (dvdsub), -sid 2, -slang fra
[lavf] stream 6: subtitle (dvdsub), -sid 3, -slang spa
[lavf] stream 7: subtitle (dvdsub), -sid 4, -slang zho
[lavf] stream 8: subtitle (dvdsub), -sid 5, -slang zho
VIDEO:  [H264]  1920x1080  24bpp  23.976 fps  3974.3 kbps (485.1 kbyte/s)
[V] filefmt:44  fourcc:0x34363248  size:1920x1080  fps:23.976  ftime:=0.0417
==========================================================================
Opening audio decoder: [ffmpeg] FFmpeg/libavcodec audio decoders
AUDIO: 48000 Hz, 6 ch, s16le, 639.6 kbit/13.88% (ratio: 79947->576000)
Selected audio codec: [ffaac] afm: ffmpeg (FFmpeg AAC (MPEG-2/MPEG-4 Audio))
==========================================================================
Writing to stdout
PACKET SIZE: 2048 bytes, deltascr: 884
Opening video filter: [expand osd=1]
Expand: -1 x -1, -1 ; -1, osd: 1, aspect: 0.000000, round: 1
==========================================================================
Opening video decoder: [ffmpeg] FFmpeg's libavcodec codec family
Selected video codec: [ffh264] vfm: ffmpeg (FFmpeg H.264)
==========================================================================
[ac3 @ 0xfe8a20]channel_layout not specified
[ac3 @ 0xfe8a20]No channel layout specified. The encoder will guess the layout, but it might be incorrect.
[ac3 @ 0xfe8a20]invalid bit rate
Couldn't open codec ac3, br=2560.

Exiting...


==EDIT 2==
Looks like mencoder errors out on any AC3 bitrate thats > 640, so there should probably be a hard limit for that field at 640. When I put it down to 640, it now plays (though with the incorrect audio selected).
Specs: OS X 10.7.2 (64 Bit Mode); 2x 2.26 GHz Quad Core Intel i7 Processors with HT Enabled; 6 GB DDR3; ATI 5870
Network: Gigabit Ethernet LAN, all hardlined
JDK: build 1.6.0_29-b11-402-11M3527
PS3: Slim 160GB
XenoPhex
 
Posts: 14
Joined: Sun Oct 11, 2009 7:07 pm

Previous

Return to Beta Builds

Who is online

Users browsing this forum: Bing [Bot] and 2 guests